  0
SECTION
  2
HEADER
  9
$ACADVER
  1
AC1015
  9
$ACADMAINTVER
 70
     6
  9
$DWGCODEPAGE
  3
ANSI_932
  9
$INSBASE
 10
0.0
 20
0.0
 30
0.0
  9
$EXTMIN
 10
-52.18703311615111
 20
-81.19277615777516
 30
-0.00000001
  9
$EXTMAX
 10
54.94639082563026
 20
125.3293811431682
 30
0.00000001
  9
$LIMMIN
 10
11.57448730468749
 20
9.446796332465277
  9
$LIMMAX
 10
201.2700575086805
 20
282.012415907118
  9
$ORTHOMODE
 70
     0
  9
$REGENMODE
 70
     1
  9
$FILLMODE
 70
     1
  9
$QTEXTMODE
 70
     0
  9
$MIRRTEXT
 70
     1
  9
$LTSCALE
 40
1.0
  9
$ATTMODE
 70
     1
  9
$TEXTSIZE
 40
0.0
  9
$TRACEWID
 40
0.05
  9
$TEXTSTYLE
  7
Standard
  9
$CLAYER
  8
0
  9
$CELTYPE
  6
ByLayer
  9
$CECOLOR
 62
     0
  9
$CELTSCALE
 40
1.0
  9
$DISPSILH
 70
     0
  9
$DIMSCALE
 40
1.0
  9
$DIMASZ
 40
2.0
  9
$DIMEXO
 40
2.0
  9
$DIMDLI
 40
3.75
  9
$DIMRND
 40
0.0
  9
$DIMDLE
 40
0.0
  9
$DIMEXE
 40
0.5
  9
$DIMTP
 40
0.0
  9
$DIMTM
 40
0.0
  9
$DIMTXT
 40
2.5
  9
$DIMCEN
 40
2.0
  9
$DIMTSZ
 40
0.0
  9
$DIMTOL
 70
     0
  9
$DIMLIM
 70
     0
  9
$DIMTIH
 70
     0
  9
$DIMTOH
 70
     0
  9
$DIMSE1
 70
     0
  9
$DIMSE2
 70
     0
  9
$DIMTAD
 70
     1
  9
$DIMZIN
 70
     8
  9
$DIMBLK
  1

  9
$DIMASO
 70
     1
  9
$DIMSHO
 70
     1
  9
$DIMPOST
  1

  9
$DIMAPOST
  1

  9
$DIMALT
 70
     0
  9
$DIMALTD
 70
     3
  9
$DIMALTF
 40
0.03937007874016
  9
$DIMLFAC
 40
1.0
  9
$DIMTOFL
 70
     1
  9
$DIMTVP
 40
0.0
  9
$DIMTIX
 70
     1
  9
$DIMSOXD
 70
     1
  9
$DIMSAH
 70
     0
  9
$DIMBLK1
  1

  9
$DIMBLK2
  1

  9
$DIMSTYLE
  2
ISO-25 1／10
  9
$DIMCLRD
 70
     0
  9
$DIMCLRE
 70
     0
  9
$DIMCLRT
 70
     0
  9
$DIMTFAC
 40
1.0
  9
$DIMGAP
 40
0.75
  9
$DIMJUST
 70
     0
  9
$DIMSD1
 70
     0
  9
$DIMSD2
 70
     0
  9
$DIMTOLJ
 70
     0
  9
$DIMTZIN
 70
     8
  9
$DIMALTZ
 70
     0
  9
$DIMALTTZ
 70
     0
  9
$DIMUPT
 70
     0
  9
$DIMDEC
 70
     1
  9
$DIMTDEC
 70
     1
  9
$DIMALTU
 70
     2
  9
$DIMALTTD
 70
     3
  9
$DIMTXSTY
  7
Standard
  9
$DIMAUNIT
 70
     0
  9
$DIMADEC
 70
     2
  9
$DIMALTRND
 40
0.0
  9
$DIMAZIN
 70
     0
  9
$DIMDSEP
 70
    46
  9
$DIMATFIT
 70
     3
  9
$DIMFRAC
 70
     0
  9
$DIMLDRBLK
  1

  9
$DIMLUNIT
 70
     2
  9
$DIMLWD
 70
    -2
  9
$DIMLWE
 70
    -2
  9
$DIMTMOVE
 70
     0
  9
$LUNITS
 70
     2
  9
$LUPREC
 70
     4
  9
$SKETCHINC
 40
0.1
  9
$FILLETRAD
 40
0.0
  9
$AUNITS
 70
     0
  9
$AUPREC
 70
     0
  9
$MENU
  1
acad
  9
$ELEVATION
 40
0.0
  9
$PELEVATION
 40
0.0
  9
$THICKNESS
 40
0.0
  9
$LIMCHECK
 70
     0
  9
$CHAMFERA
 40
0.0
  9
$CHAMFERB
 40
0.0
  9
$CHAMFERC
 40
0.0
  9
$CHAMFERD
 40
0.0
  9
$SKPOLY
 70
     0
  9
$TDCREATE
 40
2460396.477711250
  9
$TDUCREATE
 40
2460396.102711249
  9
$TDUPDATE
 40
2460398.389365602
  9
$TDUUPDATE
 40
2460398.014365602
  9
$TDINDWG
 40
0.1534850926
  9
$TDUSRTIMER
 40
0.1534850926
  9
$USRTIMER
 70
     1
  9
$ANGBASE
 50
0.0
  9
$ANGDIR
 70
     0
  9
$PDMODE
 70
     0
  9
$PDSIZE
 40
0.0
  9
$PLINEWID
 40
0.0
  9
$SPLFRAME
 70
     0
  9
$SPLINETYPE
 70
     6
  9
$SPLINESEGS
 70
     8
  9
$HANDSEED
  5
346A
  9
$SURFTAB1
 70
     6
  9
$SURFTAB2
 70
     6
  9
$SURFTYPE
 70
     6
  9
$SURFU
 70
     6
  9
$SURFV
 70
     6
  9
$UCSBASE
  2

  9
$UCSNAME
  2

  9
$UCSORG
 10
0.0
 20
0.0
 30
0.0
  9
$UCSXDIR
 10
1.0
 20
0.0
 30
0.0
  9
$UCSYDIR
 10
0.0
 20
1.0
 30
0.0
  9
$UCSORTHOREF
  2

  9
$UCSORTHOVIEW
 70
     0
  9
$UCSORGTOP
 10
0.0
 20
0.0
 30
0.0
  9
$UCSORGBOTTOM
 10
0.0
 20
0.0
 30
0.0
  9
$UCSORGLEFT
 10
0.0
 20
0.0
 30
0.0
  9
$UCSORGRIGHT
 10
0.0
 20
0.0
 30
0.0
  9
$UCSORGFRONT
 10
0.0
 20
0.0
 30
0.0
  9
$UCSORGBACK
 10
0.0
 20
0.0
 30
0.0
  9
$PUCSBASE
  2

  9
$PUCSNAME
  2

  9
$PUCSORG
 10
0.0
 20
0.0
 30
0.0
  9
$PUCSXDIR
 10
1.0
 20
0.0
 30
0.0
  9
$PUCSYDIR
 10
0.0
 20
1.0
 30
0.0
  9
$PUCSORTHOREF
  2

  9
$PUCSORTHOVIEW
 70
     0
  9
$PUCSORGTOP
 10
0.0
 20
0.0
 30
0.0
  9
$PUCSORGBOTTOM
 10
0.0
 20
0.0
 30
0.0
  9
$PUCSORGLEFT
 10
0.0
 20
0.0
 30
0.0
  9
$PUCSORGRIGHT
 10
0.0
 20
0.0
 30
0.0
  9
$PUCSORGFRONT
 10
0.0
 20
0.0
 30
0.0
  9
$PUCSORGBACK
 10
0.0
 20
0.0
 30
0.0
  9
$USERI1
 70
     0
  9
$USERI2
 70
     0
  9
$USERI3
 70
     0
  9
$USERI4
 70
     0
  9
$USERI5
 70
     0
  9
$USERR1
 40
0.0
  9
$USERR2
 40
0.0
  9
$USERR3
 40
0.0
  9
$USERR4
 40
0.0
  9
$USERR5
 40
0.0
  9
$WORLDVIEW
 70
     1
  9
$SHADEDGE
 70
     3
  9
$SHADEDIF
 70
    70
  9
$TILEMODE
 70
     1
  9
$MAXACTVP
 70
    16
  9
$PINSBASE
 10
0.0
 20
0.0
 30
0.0
  9
$PLIMCHECK
 70
     0
  9
$PEXTMIN
 10
1.000000000000000E+20
 20
1.000000000000000E+20
 30
1.000000000000000E+20
  9
$PEXTMAX
 10
-1.000000000000000E+20
 20
-1.000000000000000E+20
 30
-1.000000000000000E+20
  9
$PLIMMIN
 10
0.0
 20
0.0
  9
$PLIMMAX
 10
12.0
 20
9.0
  9
$UNITMODE
 70
     0
  9
$VISRETAIN
 70
     0
  9
$PLINEGEN
 70
     1
  9
$PSLTSCALE
 70
     0
  9
$TREEDEPTH
 70
  3020
  9
$CMLSTYLE
  2
Standard
  9
$CMLJUST
 70
     0
  9
$CMLSCALE
 40
1.0
  9
$PROXYGRAPHICS
 70
     0
  9
$MEASUREMENT
 70
     1
  9
$CELWEIGHT
370
    13
  9
$ENDCAPS
280
     0
  9
$JOINSTYLE
280
     0
  9
$LWDISPLAY
290
     0
  9
$INSUNITS
 70
     0
  9
$HYPERLINKBASE
  1

  9
$STYLESHEET
  1

  9
$XEDIT
290
     1
  9
$CEPSNTYPE
380
     0
  9
$PSTYLEMODE
290
     1
  9
$FINGERPRINTGUID
  2

  9
$VERSIONGUID
  2
{F5611E2F-090C-4A9F-9612-115441F7A7C9}
  9
$EXTNAMES
290
     1
  9
$PSVPSCALE
 40
0.0
  9
$OLESTARTUP
290
     0
  0
ENDSEC
  0
SECTION
  2
CLASSES
  0
CLASS
  1
LWPOLYLINE
  2
AcDbPolyline
  3
AutoCAD 2000
 90
    32768
280
     0
281
     1
  0
CLASS
  1
IMAGE
  2
AcDbRasterImage
  3
ISM
 90
    32895
280
     0
281
     1
  0
CLASS
  1
OLE2FRAME
  2
AcDbOle2Frame
  3
AutoCAD 2000
 90
    32768
280
     0
281
     1
  0
CLASS
  1
HATCH
  2
AcDbHatch
  3
AutoCAD 2000
 90
    32768
280
     0
281
     1
  0
CLASS
  1
DICTIONARYVAR
  2
AcDbDictionaryVar
  3
AutoCAD 2000
 90
    32768
280
     0
281
     0
  0
CLASS
  1
RASTERVARIABLES
  2
AcDbRasterVariables
  3
ISM
 90
        0
280
     0
281
     0
  0
CLASS
  1
IMAGEDEF
  2
AcDbRasterImageDef
  3
ISM
 90
    32768
280
     0
281
     0
  0
CLASS
  1
IMAGEDEF_REACTOR
  2
AcDbRasterImageDefReactor
  3
ISM
 90
    32769
280
     0
281
     0
  0
CLASS
  1
IDBUFFER
  2
AcDbIdBuffer
  3
AutoCAD 2000
 90
    32768
280
     0
281
     0
  0
CLASS
  1
SPATIAL_FILTER
  2
AcDbSpatialFilter
  3
AutoCAD 2000
 90
    32768
280
     0
281
     0
  0
CLASS
  1
XRECORD
  2
AcDbXrecord
  3
AutoCAD 2000
 90
    32768
280
     0
281
     0
  0
CLASS
  1
SORTENTSTABLE
  2
AcDbSortentsTable
  3
AutoCAD 2000
 90
    32768
280
     0
281
     0
  0
CLASS
  1
LAYER_INDEX
  2
AcDbLayerIndex
  3
AutoCAD 2000
 90
    32768
280
     0
281
     0
  0
CLASS
  1
SPATIAL_INDEX
  2
AcDbSpatialIndex
  3
AutoCAD 2000
 90
    32768
280
     0
281
     0
  0
CLASS
  1
OBJECT_PTR
  2
CAseDLPNTableRecord
  3
"ASE-LPNTableRecord"
 90
    32769
280
     0
281
     0
  0
CLASS
  1
LAYOUT
  2
AcDbLayout
  3
AutoCAD 2000
 90
        0
280
     0
281
     0
  0
CLASS
  1
PLOTSETTINGS
  2
AcDbPlotSettings
  3
AutoCAD 2000
 90
    32768
280
     0
281
     0
  0
CLASS
  1
ACDBDICTIONARYWDFLT
  2
AcDbDictionaryWithDefault
  3
AutoCAD 2000
 90
        0
280
     0
281
     0
  0
CLASS
  1
ACDBPLACEHOLDER
  2
AcDbPlaceHolder
  3
AutoCAD 2000
 90
        0
280
     0
281
     0
  0
CLASS
  1
VBA_PROJECT
  2
AcDbVbaProject
  3
acadvba
 90
    32768
280
     0
281
     0
  0
CLASS
  1
WIPEOUT
  2
AcDbWipeout
  3
WipeOut|AutoCAD Express Tool|expresstools@autodesk.com
 90
    32895
280
     0
281
     1
  0
CLASS
  1
WIPEOUTVARIABLES
  2
AcDbWipeoutVariables
  3
WipeOut|AutoCAD Express Tool|expresstools@autodesk.com
 90
        0
280
     0
281
     0
  0
CLASS
  1
RTEXT
  2
RText
  3
RText|AutoCAD Express Tool|expresstools@autodesk.com
 90
    32768
280
     0
281
     1
  0
CLASS
  1
ARCALIGNEDTEXT
  2
AcDbArcAlignedText
  3
ATEXT|AutoCAD Express Tool|expresstools@autodesk.com
 90
    32768
280
     0
281
     1
  0
ENDSEC
  0
SECTION
  2
TABLES
  0
TABLE
  2
VPORT
  5
7
330
0
100
AcDbSymbolTable
 70
     2
  0
VPORT
  5
3469
330
7
100
AcDbSymbolTableRecord
100
AcDbViewportTableRecord
  2
*Active
 70
     0
 10
0.0
 20
0.0
 11
1.0
 21
1.0
 12
2.578342610665004
 22
21.43983025461625
 13
0.0
 23
0.0
 14
1.0
 24
1.0
 15
0.0
 25
0.0
 16
0.0
 26
0.0
 36
1.0
 17
0.0
 27
0.0
 37
0.0
 40
265.3898061337094
 41
2.165492957746478
 42
50.0
 43
0.0
 44
0.0
 50
0.0
 51
0.0
 71
     0
 72
   100
 73
     1
 74
     1
 75
     0
 76
     0
 77
     0
 78
     0
281
     0
 65
     0
110
0.0
120
0.0
130
0.0
111
1.0
121
0.0
131
0.0
112
0.0
122
1.0
132
0.0
 79
     0
146
0.0
  0
ENDTAB
  0
TABLE
  2
LTYPE
  5
4
330
0
100
AcDbSymbolTable
 70
     1
  0
LTYPE
  5
11
330
4
100
AcDbSymbolTableRecord
100
AcDbLinetypeTableRecord
  2
ByBlock
 70
     0
  3

 72
    65
 73
     0
 40
0.0
  0
LTYPE
  5
12
330
4
100
AcDbSymbolTableRecord
100
AcDbLinetypeTableRecord
  2
ByLayer
 70
     0
  3

 72
    65
 73
     0
 40
0.0
  0
LTYPE
  5
13
330
4
100
AcDbSymbolTableRecord
100
AcDbLinetypeTableRecord
  2
Continuous
 70
     0
  3
Solid line
 72
    65
 73
     0
 40
0.0
  0
ENDTAB
  0
TABLE
  2
LAYER
  5
2
102
{ACAD_XDICTIONARY
360
227A
102
}
330
0
100
AcDbSymbolTable
 70
     4
  0
LAYER
  5
14
330
2
100
AcDbSymbolTableRecord
100
AcDbLayerTableRecord
  2
0
 70
     0
 62
     7
  6
Continuous
370
    -3
390
1D
  0
LAYER
  5
24FA
330
2
100
AcDbSymbolTableRecord
100
AcDbLayerTableRecord
  2
Defpoints
 70
     0
 62
     2
  6
Continuous
290
     0
370
    -3
390
1D
  0
LAYER
  5
24FB
330
2
100
AcDbSymbolTableRecord
100
AcDbLayerTableRecord
  2
寸法
 70
     0
 62
     6
  6
Continuous
370
    -3
390
1D
  0
LAYER
  5
24FC
330
2
100
AcDbSymbolTableRecord
100
AcDbLayerTableRecord
  2
文字
 70
     0
 62
    30
  6
Continuous
370
    -3
390
1D
  0
ENDTAB
  0
TABLE
  2
STYLE
  5
3
330
0
100
AcDbSymbolTable
 70
     1
  0
STYLE
  5
17
330
3
100
AcDbSymbolTableRecord
100
AcDbTextStyleTableRecord
  2
Standard
 70
     0
 40
0.0
 41
1.0
 50
0.0
 71
     0
 42
0.0
  3
txt
  4

  0
ENDTAB
  0
TABLE
  2
VIEW
  5
5
330
0
100
AcDbSymbolTable
 70
     0
  0
ENDTAB
  0
TABLE
  2
UCS
  5
6
330
0
100
AcDbSymbolTable
 70
     0
  0
ENDTAB
  0
TABLE
  2
APPID
  5
8
330
0
100
AcDbSymbolTable
 70
     1
  0
APPID
  5
16
330
8
100
AcDbSymbolTableRecord
100
AcDbRegAppTableRecord
  2
ACAD
 70
     0
  0
ENDTAB
  0
TABLE
  2
DIMSTYLE
  5
9
330
0
100
AcDbSymbolTable
 70
     2
100
AcDbDimStyleTable
 71
     1
340
24FD
  0
DIMSTYLE
105
18
330
9
100
AcDbSymbolTableRecord
100
AcDbDimStyleTableRecord
  2
Standard
 70
     0
289
     0
340
17
  0
DIMSTYLE
105
24FD
102
{ACAD_REACTORS
330
2F0E
330
2F41
330
2F40
330
2F42
330
2F3F
102
}
330
9
100
AcDbSymbolTableRecord
100
AcDbDimStyleTableRecord
  2
ISO-25 1／10
 70
     0
 41
2.0
 42
2.0
 43
3.75
 44
0.5
 73
     0
 74
     0
 77
     1
 78
     8
140
2.5
141
2.0
143
0.03937007874016
147
0.75
171
     3
172
     1
174
     1
175
     1
179
     2
271
     1
272
     1
274
     3
283
     0
284
     8
340
17
  0
ENDTAB
  0
TABLE
  2
BLOCK_RECORD
  5
1
330
0
100
AcDbSymbolTable
 70
     5
  0
BLOCK_RECORD
  5
A
330
1
100
AcDbSymbolTableRecord
100
AcDbBlockTableRecord
  2
*MODEL_SPACE
340
20
  0
BLOCK_RECORD
  5
B
330
1
100
AcDbSymbolTableRecord
100
AcDbBlockTableRecord
  2
*PAPER_SPACE
340
21
  0
BLOCK_RECORD
  5
2F0F
330
1
100
AcDbSymbolTableRecord
100
AcDbBlockTableRecord
  2
*D0
340
0
  0
BLOCK_RECORD
  5
2F43
330
1
100
AcDbSymbolTableRecord
100
AcDbBlockTableRecord
  2
*D1
340
0
  0
BLOCK_RECORD
  5
2F4F
330
1
100
AcDbSymbolTableRecord
100
AcDbBlockTableRecord
  2
*D2
340
0
  0
BLOCK_RECORD
  5
2F5B
330
1
100
AcDbSymbolTableRecord
100
AcDbBlockTableRecord
  2
*D3
340
0
  0
BLOCK_RECORD
  5
2F67
330
1
100
AcDbSymbolTableRecord
100
AcDbBlockTableRecord
  2
*D4
340
0
  0
ENDTAB
  0
ENDSEC
  0
SECTION
  2
BLOCKS
  0
BLOCK
  5
D
330
A
100
AcDbEntity
  8
0
100
AcDbBlockBegin
  2
*MODEL_SPACE
 70
     0
 10
0.0
 20
0.0
 30
0.0
  3
*MODEL_SPACE
  1

  0
ENDBLK
  5
E
330
A
100
AcDbEntity
  8
0
100
AcDbBlockEnd
  0
BLOCK
  5
F
330
B
100
AcDbEntity
 67
     1
  8
0
100
AcDbBlockBegin
  2
*PAPER_SPACE
 70
     0
 10
0.0
 20
0.0
 30
0.0
  3
*PAPER_SPACE
  1

  0
ENDBLK
  5
10
330
B
100
AcDbEntity
 67
     1
  8
0
100
AcDbBlockEnd
  0
BLOCK
  5
2F19
330
2F0F
100
AcDbEntity
  8
0
 62
     1
370
    13
100
AcDbBlockBegin
  2
*D0
 70
     1
 10
0.0
 20
0.0
 30
0.0
  3
*D0
  1

  0
LINE
  5
3437
330
2F0F
100
AcDbEntity
  8
寸法
 62
     0
370
    -2
100
AcDbLine
 10
-13.58943604395659
 20
76.33022184352661
 30
0.0
 11
-31.05360908574275
 21
76.33022184352661
 31
0.0
  0
LINE
  5
3438
330
2F0F
100
AcDbEntity
  8
寸法
 62
     0
370
    -2
100
AcDbLine
 10
-27.33154138900425
 20
-43.66977771597689
 30
0.0
 11
-31.05360908574278
 21
-43.66977771597689
 31
0.0
  0
LINE
  5
3439
330
2F0F
100
AcDbEntity
  8
寸法
 62
     0
370
    -2
100
AcDbLine
 10
-30.55360908574275
 20
74.33022184352662
 30
0.0
 11
-30.55360908574277
 21
-41.66977771597689
 31
0.0
  0
SOLID
  5
343A
330
2F0F
100
AcDbEntity
  8
寸法
 62
     0
370
    13
100
AcDbTrace
 10
-30.88694241907608
 20
74.33022184352662
 30
0.0
 11
-30.22027575240942
 21
74.33022184352662
 31
0.0
 12
-30.55360908574275
 22
76.33022184352661
 32
0.0
 13
-30.55360908574275
 23
76.33022184352661
 33
0.0
  0
SOLID
  5
343B
330
2F0F
100
AcDbEntity
  8
寸法
 62
     0
370
    13
100
AcDbTrace
 10
-30.88694241907611
 20
-41.66977771597689
 30
0.0
 11
-30.22027575240944
 21
-41.66977771597689
 31
0.0
 12
-30.55360908574277
 22
-43.66977771597689
 32
0.0
 13
-30.55360908574277
 23
-43.66977771597689
 33
0.0
  0
MTEXT
  5
343C
330
2F0F
100
AcDbEntity
  8
寸法
 62
     0
370
    13
100
AcDbMText
 10
-32.55360908574276
 20
16.33022206377486
 30
0.0
 40
2.5
 41
0.0
 71
     5
 72
     1
  1
120
 11
0.0000000000000001
 21
1.0
 31
0.0
 73
     1
 44
1.0
  0
POINT
  5
343D
330
2F0F
100
AcDbEntity
  8
Defpoints
 62
     0
370
    13
100
AcDbPoint
 10
-11.5894360439566
 20
76.33022184352661
 30
0.0
  0
POINT
  5
343E
330
2F0F
100
AcDbEntity
  8
Defpoints
 62
     0
370
    13
100
AcDbPoint
 10
-25.33154138900425
 20
-43.66977771597689
 30
0.0
  0
POINT
  5
343F
330
2F0F
100
AcDbEntity
  8
Defpoints
 62
     0
370
    13
100
AcDbPoint
 10
-30.55360908574277
 20
-43.66977771597689
 30
0.0
  0
ENDBLK
  5
2F1A
330
2F0F
100
AcDbEntity
  8
0
 62
     1
370
    13
100
AcDbBlockEnd
  0
BLOCK
  5
2F4D
330
2F43
100
AcDbEntity
  8
0
 62
     1
370
    13
100
AcDbBlockBegin
  2
*D1
 70
     1
 10
0.0
 20
0.0
 30
0.0
  3
*D1
  1

  0
LINE
  5
3440
330
2F43
100
AcDbEntity
  8
寸法
 62
     0
370
    -2
100
AcDbLine
 10
-0.5535911296923289
 20
-33.68625408602574
 30
0.0
 11
-0.5535911296923302
 21
-54.16977761832064
 31
0.0
  0
LINE
  5
3441
330
2F43
100
AcDbEntity
  8
寸法
 62
     0
370
    -2
100
AcDbLine
 10
24.44640837426633
 20
-33.56032005997084
 30
0.0
 11
24.44640837426633
 21
-54.16977761832064
 31
0.0
  0
LINE
  5
3442
330
2F43
100
AcDbEntity
  8
寸法
 62
     0
370
    -2
100
AcDbLine
 10
1.446408870307669
 20
-53.66977761832064
 30
0.0
 11
22.44640837426633
 21
-53.66977761832064
 31
0.0
  0
SOLID
  5
3443
330
2F43
100
AcDbEntity
  8
寸法
 62
     0
370
    13
100
AcDbTrace
 10
1.446408870307669
 20
-53.3364442849873
 30
0.0
 11
1.446408870307669
 21
-54.00311095165397
 31
0.0
 12
-0.5535911296923302
 22
-53.66977761832064
 32
0.0
 13
-0.5535911296923302
 23
-53.66977761832064
 33
0.0
  0
SOLID
  5
3444
330
2F43
100
AcDbEntity
  8
寸法
 62
     0
370
    13
100
AcDbTrace
 10
22.44640837426633
 20
-53.3364442849873
 30
0.0
 11
22.44640837426633
 21
-54.00311095165397
 31
0.0
 12
24.44640837426633
 22
-53.66977761832064
 32
0.0
 13
24.44640837426633
 23
-53.66977761832064
 33
0.0
  0
MTEXT
  5
3445
330
2F43
100
AcDbEntity
  8
寸法
 62
     0
370
    13
100
AcDbMText
 10
11.946408622287
 20
-51.66977761832064
 30
0.0
 40
2.5
 41
0.0
 71
     5
 72
     1
  1
%%c25
 73
     1
 44
1.0
  0
POINT
  5
3446
330
2F43
100
AcDbEntity
  8
Defpoints
 62
     0
370
    13
100
AcDbPoint
 10
-0.5535911296923289
 20
-31.68625408602574
 30
0.0
  0
POINT
  5
3447
330
2F43
100
AcDbEntity
  8
Defpoints
 62
     0
370
    13
100
AcDbPoint
 10
24.44640837426633
 20
-31.56032005997085
 30
0.0
  0
POINT
  5
3448
330
2F43
100
AcDbEntity
  8
Defpoints
 62
     0
370
    13
100
AcDbPoint
 10
24.44640837426633
 20
-53.66977761832064
 30
0.0
  0
ENDBLK
  5
2F4E
330
2F43
100
AcDbEntity
  8
0
 62
     1
370
    13
100
AcDbBlockEnd
  0
BLOCK
  5
2F59
330
2F4F
100
AcDbEntity
  8
0
 62
     1
370
    13
100
AcDbBlockBegin
  2
*D2
 70
     1
 10
0.0
 20
0.0
 30
0.0
  3
*D2
  1

  0
LINE
  5
3449
330
2F4F
100
AcDbEntity
  8
寸法
 62
     0
370
    -2
100
AcDbLine
 10
-25.55360901876952
 20
-45.44753491374141
 30
0.0
 11
-25.55360901876952
 21
-59.1697775206644
 31
0.0
  0
LINE
  5
344A
330
2F4F
100
AcDbEntity
  8
寸法
 62
     0
370
    -2
100
AcDbLine
 10
49.44639082563025
 20
-45.44855118475629
 30
0.0
 11
49.44639082563025
 21
-59.1697775206644
 31
0.0
  0
LINE
  5
344B
330
2F4F
100
AcDbEntity
  8
寸法
 62
     0
370
    -2
100
AcDbLine
 10
-23.55360901876952
 20
-58.66977752066439
 30
0.0
 11
47.44639082563025
 21
-58.66977752066439
 31
0.0
  0
SOLID
  5
344C
330
2F4F
100
AcDbEntity
  8
寸法
 62
     0
370
    13
100
AcDbTrace
 10
-23.55360901876952
 20
-58.33644418733106
 30
0.0
 11
-23.55360901876952
 21
-59.00311085399773
 31
0.0
 12
-25.55360901876952
 22
-58.66977752066439
 32
0.0
 13
-25.55360901876952
 23
-58.66977752066439
 33
0.0
  0
SOLID
  5
344D
330
2F4F
100
AcDbEntity
  8
寸法
 62
     0
370
    13
100
AcDbTrace
 10
47.44639082563025
 20
-58.33644418733106
 30
0.0
 11
47.44639082563025
 21
-59.00311085399773
 31
0.0
 12
49.44639082563025
 22
-58.66977752066439
 32
0.0
 13
49.44639082563025
 23
-58.66977752066439
 33
0.0
  0
MTEXT
  5
344E
330
2F4F
100
AcDbEntity
  8
寸法
 62
     0
370
    13
100
AcDbMText
 10
11.94639090343036
 20
-56.6697775206644
 30
0.0
 40
2.5
 41
0.0
 71
     5
 72
     1
  1
75
 73
     1
 44
1.0
  0
POINT
  5
344F
330
2F4F
100
AcDbEntity
  8
Defpoints
 62
     0
370
    13
100
AcDbPoint
 10
-25.55360901876952
 20
-43.44753491374141
 30
0.0
  0
POINT
  5
3450
330
2F4F
100
AcDbEntity
  8
Defpoints
 62
     0
370
    13
100
AcDbPoint
 10
49.44639082563025
 20
-43.44855118475629
 30
0.0
  0
POINT
  5
3451
330
2F4F
100
AcDbEntity
  8
Defpoints
 62
     0
370
    13
100
AcDbPoint
 10
49.44639082563025
 20
-58.66977752066439
 30
0.0
  0
ENDBLK
  5
2F5A
330
2F4F
100
AcDbEntity
  8
0
 62
     1
370
    13
100
AcDbBlockEnd
  0
BLOCK
  5
2F65
330
2F5B
100
AcDbEntity
  8
0
 62
     1
370
    13
100
AcDbBlockBegin
  2
*D3
 70
     1
 10
0.0
 20
0.0
 30
0.0
  3
*D3
  1

  0
LINE
  5
3452
330
2F5B
100
AcDbEntity
  8
寸法
 62
     0
370
    -2
100
AcDbLine
 10
4.946390869943712
 20
-44.65364977029445
 30
0.0
 11
4.946390869943712
 21
-49.16977771597689
 31
0.0
  0
LINE
  5
3453
330
2F5B
100
AcDbEntity
  8
寸法
 62
     0
370
    -2
100
AcDbLine
 10
18.94639086994371
 20
-44.65364977029445
 30
0.0
 11
18.94639086994371
 21
-49.16977771597689
 31
0.0
  0
LINE
  5
3454
330
2F5B
100
AcDbEntity
  8
寸法
 62
     0
370
    -2
100
AcDbLine
 10
6.946390869943712
 20
-48.66977771597689
 30
0.0
 11
16.94639086994371
 21
-48.66977771597689
 31
0.0
  0
SOLID
  5
3455
330
2F5B
100
AcDbEntity
  8
寸法
 62
     0
370
    13
100
AcDbTrace
 10
6.946390869943712
 20
-48.33644438264355
 30
0.0
 11
6.946390869943712
 21
-49.00311104931023
 31
0.0
 12
4.946390869943712
 22
-48.66977771597689
 32
0.0
 13
4.946390869943712
 23
-48.66977771597689
 33
0.0
  0
SOLID
  5
3456
330
2F5B
100
AcDbEntity
  8
寸法
 62
     0
370
    13
100
AcDbTrace
 10
16.94639086994371
 20
-48.33644438264355
 30
0.0
 11
16.94639086994371
 21
-49.00311104931023
 31
0.0
 12
18.94639086994371
 22
-48.66977771597689
 32
0.0
 13
18.94639086994371
 23
-48.66977771597689
 33
0.0
  0
MTEXT
  5
3457
330
2F5B
100
AcDbEntity
  8
寸法
 62
     0
370
    13
100
AcDbMText
 10
11.94639086994371
 20
-46.66977771597689
 30
0.0
 40
2.5
 41
0.0
 71
     5
 72
     1
  1
%%c14
 73
     1
 44
1.0
  0
POINT
  5
3458
330
2F5B
100
AcDbEntity
  8
Defpoints
 62
     0
370
    13
100
AcDbPoint
 10
4.946390869943712
 20
-42.65364977029444
 30
0.0
  0
POINT
  5
3459
330
2F5B
100
AcDbEntity
  8
Defpoints
 62
     0
370
    13
100
AcDbPoint
 10
18.94639086994371
 20
-42.65364977029444
 30
0.0
  0
POINT
  5
345A
330
2F5B
100
AcDbEntity
  8
Defpoints
 62
     0
370
    13
100
AcDbPoint
 10
18.94639086994371
 20
-48.66977771597689
 30
0.0
  0
ENDBLK
  5
2F66
330
2F5B
100
AcDbEntity
  8
0
 62
     1
370
    13
100
AcDbBlockEnd
  0
BLOCK
  5
2F71
330
2F67
100
AcDbEntity
  8
0
 62
     1
370
    13
100
AcDbBlockBegin
  2
*D4
 70
     1
 10
0.0
 20
0.0
 30
0.0
  3
*D4
  1

  0
LINE
  5
345B
330
2F67
100
AcDbEntity
  8
寸法
 62
     0
370
    -2
100
AcDbLine
 10
28.48888092700585
 20
-26.6697776913138
 30
0.0
 11
54.94639082563026
 21
-26.6697776913138
 31
0.0
  0
LINE
  5
345C
330
2F67
100
AcDbEntity
  8
寸法
 62
     0
370
    -2
100
AcDbLine
 10
51.22432312889169
 20
-43.66977771597689
 30
0.0
 11
54.94639082563026
 21
-43.66977771597689
 31
0.0
  0
LINE
  5
345D
330
2F67
100
AcDbEntity
  8
寸法
 62
     0
370
    -2
100
AcDbLine
 10
54.44639082563025
 20
-28.6697776913138
 30
0.0
 11
54.44639082563025
 21
-41.66977771597689
 31
0.0
  0
SOLID
  5
345E
330
2F67
100
AcDbEntity
  8
寸法
 62
     0
370
    13
100
AcDbTrace
 10
54.11305749229692
 20
-28.6697776913138
 30
0.0
 11
54.77972415896359
 21
-28.6697776913138
 31
0.0
 12
54.44639082563025
 22
-26.6697776913138
 32
0.0
 13
54.44639082563025
 23
-26.6697776913138
 33
0.0
  0
SOLID
  5
345F
330
2F67
100
AcDbEntity
  8
寸法
 62
     0
370
    13
100
AcDbTrace
 10
54.11305749229692
 20
-41.66977771597689
 30
0.0
 11
54.77972415896359
 21
-41.66977771597689
 31
0.0
 12
54.44639082563025
 22
-43.66977771597689
 32
0.0
 13
54.44639082563025
 23
-43.66977771597689
 33
0.0
  0
MTEXT
  5
3460
330
2F67
100
AcDbEntity
  8
寸法
 62
     0
370
    13
100
AcDbMText
 10
52.44639082563026
 20
-35.16977770364533
 30
0.0
 40
2.5
 41
0.0
 71
     5
 72
     1
  1
17
 11
0.0000000000000001
 21
1.0
 31
0.0
 73
     1
 44
1.0
  0
POINT
  5
3461
330
2F67
100
AcDbEntity
  8
Defpoints
 62
     0
370
    13
100
AcDbPoint
 10
26.48888092700586
 20
-26.6697776913138
 30
0.0
  0
POINT
  5
3462
330
2F67
100
AcDbEntity
  8
Defpoints
 62
     0
370
    13
100
AcDbPoint
 10
49.22432312889169
 20
-43.66977771597689
 30
0.0
  0
POINT
  5
3463
330
2F67
100
AcDbEntity
  8
Defpoints
 62
     0
370
    13
100
AcDbPoint
 10
54.44639082563025
 20
-43.66977771597689
 30
0.0
  0
ENDBLK
  5
2F72
330
2F67
100
AcDbEntity
  8
0
 62
     1
370
    13
100
AcDbBlockEnd
  0
ENDSEC
  0
SECTION
  2
ENTITIES
  0
LINE
  5
214D
102
{ACAD_REACTORS
330
2D1C
102
}
330
A
100
AcDbEntity
  8
0
370
    13
100
AcDbLine
 10
-10.9791547389986
 20
-31.68564767484395
 30
0.0
 11
23.63270341080985
 21
-31.68648884036191
 31
0.0
  0
SPLINE
  5
214E
102
{ACAD_REACTORS
330
2D1C
102
}
330
A
100
AcDbEntity
  8
0
370
    13
100
AcDbSpline
210
0.0
220
0.0
230
1.0
 70
     8
 71
     3
 72
     8
 73
     4
 74
     0
 42
0.0000000001
 43
0.0000000001
 40
0.0
 40
0.0
 40
0.0
 40
0.0
 40
1.0
 40
1.0
 40
1.0
 40
1.0
 10
-10.9791547389986
 20
-31.68564767484395
 30
0.0
 10
-11.93513935014773
 20
-31.68564767484395
 30
0.0
 10
-12.75864039221984
 20
-32.36278591679294
 30
0.0
 10
-12.94201447513272
 20
-33.30236780034203
 30
0.0
  0
LINE
  5
214F
102
{ACAD_REACTORS
330
2D1C
102
}
330
A
100
AcDbEntity
  8
0
370
    13
100
AcDbLine
 10
-13.55774763427144
 20
-36.27425048216883
 30
0.0
 11
-12.94201447513272
 21
-33.30236780034203
 31
0.0
  0
LINE
  5
2151
102
{ACAD_REACTORS
330
2D1C
102
}
330
A
100
AcDbEntity
  8
0
370
    13
100
AcDbLine
 10
24.20385479749725
 20
-38.65306656692878
 30
0.0
 11
-11.61465528780912
 21
-38.65306656692878
 31
0.0
  0
LINE
  5
2159
102
{ACAD_REACTORS
330
2D1C
102
}
330
A
100
AcDbEntity
  8
0
370
    13
100
AcDbLine
 10
26.52084521668791
 20
-26.67061885683175
 30
0.0
 11
12.5783416691434
 21
-26.67061885683175
 31
0.0
  0
SPLINE
  5
215A
102
{ACAD_REACTORS
330
2D1C
102
}
330
A
100
AcDbEntity
  8
0
370
    13
100
AcDbSpline
210
0.0
220
0.0
230
1.0
 70
     8
 71
     3
 72
     8
 73
     4
 74
     0
 42
0.0000000001
 43
0.0000000001
 40
0.0
 40
0.0
 40
0.0
 40
0.0
 40
1.0
 40
1.0
 40
1.0
 40
1.0
 10
25.59472198142602
 20
-33.30236780034203
 30
0.0
 10
25.41050673299515
 20
-32.36446824782884
 30
0.0
 10
24.58868802195894
 20
-31.68733000587986
 30
0.0
 10
23.63270341080985
 20
-31.68648884036191
 30
0.0
  0
LINE
  5
2162
102
{ACAD_REACTORS
330
2D1C
102
}
330
A
100
AcDbEntity
  8
0
370
    13
100
AcDbLine
 10
-21.10889048890003
 20
43.43421606422145
 30
0.0
 11
-15.12063316662075
 21
45.90892501802755
 31
0.0
  0
LINE
  5
2163
102
{ACAD_REACTORS
330
2D1C
102
}
330
A
100
AcDbEntity
  8
0
370
    13
100
AcDbLine
 10
-21.29899389595651
 20
-15.84776497875569
 30
0.0
 11
-21.29899389595653
 21
-3.940225906668942
 31
0.0
  0
SPLINE
  5
2164
102
{ACAD_REACTORS
330
2D1C
102
}
330
A
100
AcDbEntity
  8
0
370
    13
100
AcDbSpline
210
0.0
220
0.0
230
1.0
 70
     8
 71
     3
 72
     8
 73
     4
 74
     0
 42
0.0000000001
 43
0.0000000001
 40
0.0
 40
0.0
 40
0.0
 40
0.0
 40
1.0
 40
1.0
 40
1.0
 40
1.0
 10
-21.02940034745385
 20
-17.2558760558024
 30
0.0
 10
-20.97808925085895
 20
-17.19110631092031
 30
0.0
 10
-20.96673351636665
 20
-17.10362509705363
 30
0.0
 10
-21.00122130260256
 20
-17.02707903492026
 30
0.0
  0
LINE
  5
2166
102
{ACAD_REACTORS
330
2D1C
102
}
330
A
100
AcDbEntity
  8
0
370
    13
100
AcDbLine
 10
39.79948408303156
 20
58.04357877996051
 30
0.0
 11
39.41254794477503
 21
55.05660002572345
 31
0.0
  0
LINE
  5
2168
102
{ACAD_REACTORS
330
2D1C
102
}
330
A
100
AcDbEntity
  8
0
370
    13
100
AcDbLine
 10
39.16440411698005
 20
53.09079621027652
 30
0.0
 11
38.84139655808762
 21
50.10297629052151
 31
0.0
  0
LINE
  5
216A
102
{ACAD_REACTORS
330
2D1C
102
}
330
A
100
AcDbEntity
  8
0
370
    13
100
AcDbLine
 10
38.59325273029264
 20
48.13801364059255
 30
0.0
 11
38.20673717479505
 21
45.14935255531957
 31
0.0
  0
LINE
  5
216C
102
{ACAD_REACTORS
330
2D1C
102
}
330
A
100
AcDbEntity
  8
0
370
    13
100
AcDbLine
 10
37.9585933470001
 20
43.18354873987266
 30
0.0
 11
37.56072205701018
 21
40.16039986836374
 31
0.0
  0
LINE
  5
216E
102
{ACAD_REACTORS
330
2D1C
102
}
330
A
100
AcDbEntity
  8
0
370
    13
100
AcDbLine
 10
37.31341939473317
 20
38.19459605291681
 30
0.0
 11
36.92564209095867
 21
35.20677613316179
 31
0.0
  0
LINE
  5
2170
102
{ACAD_REACTORS
330
2D1C
102
}
330
A
100
AcDbEntity
  8
0
370
    13
100
AcDbLine
 10
36.67791884592267
 20
33.24097231771486
 30
0.0
 11
36.2909827076661
 21
30.25315239795986
 31
0.0
  0
LINE
  5
2172
102
{ACAD_REACTORS
330
2D1C
102
}
330
A
100
AcDbEntity
  8
0
370
    13
100
AcDbLine
 10
36.04283887987115
 20
28.28734858251293
 30
0.0
 11
35.71899015546074
 21
25.30036982827587
 31
0.0
  0
LINE
  5
2174
102
{ACAD_REACTORS
330
2D1C
102
}
330
A
100
AcDbEntity
  8
0
370
    13
100
AcDbLine
 10
35.47084632766579
 20
23.33456601282894
 30
0.0
 11
35.08433077216821
 21
20.34674609307391
 31
0.0
  0
LINE
  5
2176
102
{ACAD_REACTORS
330
2D1C
102
}
330
A
100
AcDbEntity
  8
0
370
    13
100
AcDbLine
 10
34.83618694437322
 20
18.38094227762698
 30
0.0
 11
34.44511464071261
 21
15.3907453977415
 31
0.0
  0
LINE
  5
2178
102
{ACAD_REACTORS
330
2D1C
102
}
330
A
100
AcDbEntity
  8
0
370
    13
100
AcDbLine
 10
34.20152756108068
 20
13.42731854242505
 30
0.0
 11
33.81375025730616
 21
10.37641120882384
 31
0.0
  0
LINE
  5
217A
102
{ACAD_REACTORS
330
2D1C
102
}
330
A
100
AcDbEntity
  8
0
370
    13
100
AcDbLine
 10
33.56581417082527
 20
8.411223152438061
 30
0.0
 11
33.17909087401361
 21
5.422787473621886
 31
0.0
  0
LINE
  5
217C
102
{ACAD_REACTORS
330
2D1C
102
}
330
A
100
AcDbEntity
  8
0
370
    13
100
AcDbLine
 10
32.93094704621864
 20
3.456983658174957
 30
0.0
 11
32.54401090796207
 21
0.4691637384199434
 31
0.0
  0
LINE
  5
217E
102
{ACAD_REACTORS
330
2D1C
102
}
330
A
100
AcDbEntity
  8
0
370
    13
100
AcDbLine
 10
32.29586708016709
 20
-1.49664007702697
 30
0.0
 11
31.97201835575672
 21
-4.484459996782
 31
0.0
  0
LINE
  5
2180
102
{ACAD_REACTORS
330
2D1C
102
}
330
A
100
AcDbEntity
  8
0
370
    13
100
AcDbLine
 10
31.72429511072074
 20
-6.450263812228913
 30
0.0
 11
31.33735897246415
 21
-9.438083731983942
 31
0.0
  0
LINE
  5
2182
102
{ACAD_REACTORS
330
2D1C
102
}
330
A
100
AcDbEntity
  8
0
370
    13
100
AcDbLine
 10
-10.56656305244462
 20
-42.65364977029444
 30
0.0
 11
11.31444007074402
 21
-42.65364977029444
 31
0.0
  0
SPLINE
  5
2183
102
{ACAD_REACTORS
330
2D1C
102
}
330
A
100
AcDbEntity
  8
0
370
    13
100
AcDbSpline
210
0.0
220
0.0
230
1.0
 70
     8
 71
     3
 72
     8
 73
     4
 74
     0
 42
0.0000000001
 43
0.0000000001
 40
0.0
 40
0.0
 40
0.0
 40
0.0
 40
1.0
 40
1.0
 40
1.0
 40
1.0
 10
-10.53459876276256
 20
-42.65364977029444
 30
0.0
 10
-10.59348034901897
 20
-42.65364977029444
 30
0.0
 10
-10.65025902148054
 20
-42.677202404797
 30
0.0
 10
-10.69147613186005
 20
-42.71926068069446
 30
0.0
  0
LINE
  5
2184
102
{ACAD_REACTORS
330
2D1C
102
}
330
A
100
AcDbEntity
  8
0
370
    13
100
AcDbLine
 10
-11.58269099812706
 20
-43.60669030213073
 30
0.0
 11
-10.69315846289595
 21
-42.71757834965856
 31
0.0
  0
SPLINE
  5
2185
102
{ACAD_REACTORS
330
2D1C
102
}
330
A
100
AcDbEntity
  8
0
370
    13
100
AcDbSpline
210
0.0
220
0.0
230
1.0
 70
     8
 71
     3
 72
     8
 73
     4
 74
     0
 42
0.0000000001
 43
0.0000000001
 40
0.0
 40
0.0
 40
0.0
 40
0.0
 40
1.0
 40
1.0
 40
1.0
 40
1.0
 10
-11.74167128101943
 20
-43.66977771597689
 30
0.0
 10
-11.68236911200403
 20
-43.66977771597689
 30
0.0
 10
-11.62643160506042
 20
-43.64706624699228
 30
0.0
 10
-11.58437332916297
 20
-43.60500797109482
 30
0.0
  0
LINE
  5
2186
102
{ACAD_REACTORS
330
2D1C
102
}
330
A
100
AcDbEntity
  8
0
370
    13
100
AcDbLine
 10
-25.3315413890076
 20
-43.66977771597689
 30
0.0
 11
-11.71012757409634
 21
-43.66977771597689
 31
0.0
  0
SPLINE
  5
2187
102
{ACAD_REACTORS
330
2D1C
102
}
330
A
100
AcDbEntity
  8
0
370
    13
100
AcDbSpline
210
0.0
220
0.0
230
1.0
 70
     8
 71
     3
 72
     8
 73
     4
 74
     0
 42
0.0000000001
 43
0.0000000001
 40
0.0
 40
0.0
 40
0.0
 40
0.0
 40
1.0
 40
1.0
 40
1.0
 40
1.0
 10
-25.55360908574282
 20
-43.44771001923834
 30
0.0
 10
-25.55360908574282
 20
-43.57052018485891
 30
0.0
 10
-25.4547721373838
 20
-43.66977771597689
 30
0.0
 10
-25.33154138900425
 20
-43.66977771597689
 30
0.0
  0
LINE
  5
2188
102
{ACAD_REACTORS
330
2D1C
102
}
330
A
100
AcDbEntity
  8
0
370
    13
100
AcDbLine
 10
-25.55360908574282
 20
74.29826124880796
 30
0.0
 11
-25.55360908574282
 21
-43.44771001924084
 31
0.0
  0
LINE
  5
2189
102
{ACAD_REACTORS
330
2D1C
102
}
330
A
100
AcDbEntity
  8
0
370
    13
100
AcDbLine
 10
-11.58269099812706
 20
76.33051714017284
 30
0.0
 11
-11.64619899473223
 21
76.33051714017284
 31
0.0
  0
LINE
  5
218A
102
{ACAD_REACTORS
330
2D1C
102
}
330
A
100
AcDbEntity
  8
0
370
    13
100
AcDbLine
 10
-10.56656305244462
 20
73.28213330312547
 30
0.0
 11
-10.56656305244462
 21
75.31354802897245
 31
0.0
  0
SPLINE
  5
218B
102
{ACAD_REACTORS
330
2D1C
102
}
330
A
100
AcDbEntity
  8
0
370
    13
100
AcDbSpline
210
0.0
220
0.0
230
1.0
 70
     8
 71
     3
 72
     8
 73
     4
 74
     0
 42
0.0000000001
 43
0.0000000001
 40
0.0
 40
0.0
 40
0.0
 40
0.0
 40
1.0
 40
1.0
 40
1.0
 40
1.0
 10
-10.78863074918315
 20
73.08866523399719
 30
0.0
 10
-10.66582058356259
 20
73.08866523399719
 30
0.0
 10
-10.56656305244462
 20
73.18876393063312
 30
0.0
 10
-10.56656305244462
 20
73.31073293073576
 30
0.0
  0
LINE
  5
218C
102
{ACAD_REACTORS
330
2D1C
102
}
330
A
100
AcDbEntity
  8
0
370
    13
100
AcDbLine
 10
-12.40871553675303
 20
73.09118873055104
 30
0.0
 11
-10.75708704226006
 21
73.09118873055104
 31
0.0
  0
SPLINE
  5
218D
102
{ACAD_REACTORS
330
2D1C
102
}
330
A
100
AcDbEntity
  8
0
370
    13
100
AcDbSpline
210
0.0
220
0.0
230
1.0
 70
     8
 71
     3
 72
     8
 73
     4
 74
     0
 42
0.0000000001
 43
0.0000000001
 40
0.0
 40
0.0
 40
0.0
 40
0.0
 40
1.0
 40
1.0
 40
1.0
 40
1.0
 10
-12.59881894380951
 20
73.31073293073576
 30
0.0
 10
-12.59881894380951
 20
73.18876393063312
 30
0.0
 10
-12.49872024717359
 20
73.08866523399719
 30
0.0
 10
-12.37675124707096
 20
73.08866523399719
 30
0.0
  0
LINE
  5
218E
102
{ACAD_REACTORS
330
2D1C
102
}
330
A
100
AcDbEntity
  8
0
370
    13
100
AcDbLine
 10
-12.59881894380952
 20
74.04422926238732
 30
0.0
 11
-12.59881894380952
 21
73.28213330312547
 31
0.0
  0
LINE
  5
218F
102
{ACAD_REACTORS
330
2D1C
102
}
330
A
100
AcDbEntity
  8
0
370
    13
100
AcDbLine
 10
-22.5687332453006
 20
66.74038907003573
 30
0.0
 11
-22.5687332453006
 21
73.28213330312547
 31
0.0
  0
SPLINE
  5
2190
102
{ACAD_REACTORS
330
2D1C
102
}
330
A
100
AcDbEntity
  8
0
370
    13
100
AcDbSpline
210
0.0
220
0.0
230
1.0
 70
     8
 71
     3
 72
     8
 73
     4
 74
     0
 42
0.0000000001
 43
0.0000000001
 40
0.0
 40
0.0
 40
0.0
 40
0.0
 40
1.0
 40
1.0
 40
1.0
 40
1.0
 10
-22.57167732461344
 20
66.76982986316393
 30
0.0
 10
-22.57167732461344
 20
66.64786086306135
 30
0.0
 10
-22.47241979349543
 20
66.54776216642537
 30
0.0
 10
-22.34960962787486
 20
66.54776216642537
 30
0.0
  0
LINE
  5
2191
102
{ACAD_REACTORS
330
2D1C
102
}
330
A
100
AcDbEntity
  8
0
370
    13
100
AcDbLine
 10
-12.788922350866
 20
66.55028566297923
 30
0.0
 11
-22.37862983824413
 21
66.55028566297923
 31
0.0
  0
SPLINE
  5
2192
102
{ACAD_REACTORS
330
2D1C
102
}
330
A
100
AcDbEntity
  8
0
370
    13
100
AcDbSpline
210
0.0
220
0.0
230
1.0
 70
     8
 71
     3
 72
     8
 73
     4
 74
     0
 42
0.0000000001
 43
0.0000000001
 40
0.0
 40
0.0
 40
0.0
 40
0.0
 40
1.0
 40
1.0
 40
1.0
 40
1.0
 10
-12.8183631439942
 20
66.54776216642537
 30
0.0
 10
-12.69639414389158
 20
66.54776216642537
 30
0.0
 10
-12.59629544725565
 20
66.64786086306135
 30
0.0
 10
-12.59629544725565
 20
66.76982986316393
 30
0.0
  0
LINE
  5
2193
102
{ACAD_REACTORS
330
2D1C
102
}
330
A
100
AcDbEntity
  8
0
370
    13
100
AcDbLine
 10
-12.59881894380952
 20
68.39159698176974
 30
0.0
 11
-12.59881894380952
 21
66.74038907003573
 31
0.0
  0
SPLINE
  5
2194
102
{ACAD_REACTORS
330
2D1C
102
}
330
A
100
AcDbEntity
  8
0
370
    13
100
AcDbSpline
210
0.0
220
0.0
230
1.0
 70
     8
 71
     3
 72
     8
 73
     4
 74
     0
 42
0.0000000001
 43
0.0000000001
 40
0.0
 40
0.0
 40
0.0
 40
0.0
 40
1.0
 40
1.0
 40
1.0
 40
1.0
 10
-12.37675124707096
 20
68.58254155434416
 30
0.0
 10
-12.49872024717359
 20
68.58254155434416
 30
0.0
 10
-12.59881894380951
 20
68.48328402322614
 30
0.0
 10
-12.59881894380951
 20
68.35963269208763
 30
0.0
  0
LINE
  5
2195
102
{ACAD_REACTORS
330
2D1C
102
}
330
A
100
AcDbEntity
  8
0
370
    13
100
AcDbLine
 10
-10.75708704226006
 20
68.58254155434416
 30
0.0
 11
-12.40871553675303
 21
68.58254155434416
 31
0.0
  0
SPLINE
  5
2196
102
{ACAD_REACTORS
330
2D1C
102
}
330
A
100
AcDbEntity
  8
0
370
    13
100
AcDbSpline
210
0.0
220
0.0
230
1.0
 70
     8
 71
     3
 72
     8
 73
     4
 74
     0
 42
0.0000000001
 43
0.0000000001
 40
0.0
 40
0.0
 40
0.0
 40
0.0
 40
1.0
 40
1.0
 40
1.0
 40
1.0
 10
-10.56656305244462
 20
68.35963269208763
 30
0.0
 10
-10.56656305244462
 20
68.48328402322614
 30
0.0
 10
-10.66582058356259
 20
68.58254155434416
 30
0.0
 10
-10.78863074918315
 20
68.58254155434416
 30
0.0
  0
LINE
  5
2197
102
{ACAD_REACTORS
330
2D1C
102
}
330
A
100
AcDbEntity
  8
0
370
    13
100
AcDbLine
 10
-10.56656305244462
 20
64.70897434418879
 30
0.0
 11
-10.56656305244462
 21
68.39159698176974
 31
0.0
  0
SPLINE
  5
2198
102
{ACAD_REACTORS
330
2D1C
102
}
330
A
100
AcDbEntity
  8
0
370
    13
100
AcDbSpline
210
0.0
220
0.0
230
1.0
 70
     8
 71
     3
 72
     8
 73
     4
 74
     0
 42
0.0000000001
 43
0.0000000001
 40
0.0
 40
0.0
 40
0.0
 40
0.0
 40
1.0
 40
1.0
 40
1.0
 40
1.0
 10
-10.78863074918315
 20
64.51802977161434
 30
0.0
 10
-10.66582058356259
 20
64.51802977161434
 30
0.0
 10
-10.56656305244462
 20
64.61728730273231
 30
0.0
 10
-10.56656305244462
 20
64.74093863387082
 30
0.0
  0
LINE
  5
2199
102
{ACAD_REACTORS
330
2D1C
102
}
330
A
100
AcDbEntity
  8
0
370
    13
100
AcDbLine
 10
-12.40871553675303
 20
64.51802977161435
 30
0.0
 11
-10.75708704226006
 21
64.51802977161435
 31
0.0
  0
LINE
  5
219B
102
{ACAD_REACTORS
330
2D1C
102
}
330
A
100
AcDbEntity
  8
0
370
    13
100
AcDbLine
 10
31.0892151446692
 20
-11.4030463819129
 30
0.0
 11
29.48216842262753
 21
-24.03020029598966
 31
0.0
  0
SPLINE
  5
219C
102
{ACAD_REACTORS
330
2D1C
102
}
330
A
100
AcDbEntity
  8
0
370
    13
100
AcDbSpline
210
0.0
220
0.0
230
1.0
 70
     8
 71
     3
 72
     8
 73
     4
 74
     0
 42
0.0000000001
 43
0.0000000001
 40
0.0
 40
0.0
 40
0.0
 40
0.0
 40
1.0
 40
1.0
 40
1.0
 40
1.0
 10
24.04277160081001
 20
-42.71926068069446
 30
0.0
 10
24.00113390767154
 20
-42.677202404797
 30
0.0
 10
23.94435523520997
 20
-42.65364977029444
 30
0.0
 10
23.88589423171251
 20
-42.65364977029444
 30
0.0
  0
LINE
  5
219D
102
{ACAD_REACTORS
330
2D1C
102
}
330
A
100
AcDbEntity
  8
0
370
    13
100
AcDbLine
 10
24.04445393184591
 20
-42.71757834965856
 30
0.0
 11
24.93314530155908
 21
-43.60584913661277
 31
0.0
  0
SPLINE
  5
219E
102
{ACAD_REACTORS
330
2D1C
102
}
330
A
100
AcDbEntity
  8
0
370
    13
100
AcDbSpline
210
0.0
220
0.0
230
1.0
 70
     8
 71
     3
 72
     8
 73
     4
 74
     0
 42
0.0000000001
 43
0.0000000001
 40
0.0
 40
0.0
 40
0.0
 40
0.0
 40
1.0
 40
1.0
 40
1.0
 40
1.0
 10
24.93482763259498
 20
-43.60500797109482
 30
0.0
 10
24.97646532573345
 20
-43.64622508147433
 30
0.0
 10
25.03324399819501
 20
-43.66977771597689
 30
0.0
 10
25.09170500169247
 20
-43.66977771597689
 30
0.0
  0
SPLINE
  5
219F
102
{ACAD_REACTORS
330
2D1C
102
}
330
A
100
AcDbEntity
  8
0
370
    13
100
AcDbSpline
210
0.0
220
0.0
230
1.0
 70
     8
 71
     3
 72
     8
 73
     4
 74
     0
 42
0.0000000001
 43
0.0000000001
 40
0.0
 40
0.0
 40
0.0
 40
0.0
 40
1.0
 40
1.0
 40
1.0
 40
1.0
 10
11.47215860535946
 20
-26.73454743619586
 30
0.0
 10
11.43010032946201
 20
-26.69333032581636
 30
0.0
 10
11.3741628225184
 20
-26.67061885683175
 30
0.0
 10
11.31444007074402
 20
-26.67061885683175
 30
0.0
  0
SPLINE
  5
21A0
102
{ACAD_REACTORS
330
2D1C
102
}
330
A
100
AcDbEntity
  8
0
370
    13
100
AcDbSpline
210
0.0
220
0.0
230
1.0
 70
     8
 71
     3
 72
     8
 73
     4
 74
     0
 42
0.0000000001
 43
0.0000000001
 40
0.0
 40
0.0
 40
0.0
 40
0.0
 40
1.0
 40
1.0
 40
1.0
 40
1.0
 10
11.78927800562626
 20
-27.05250800198061
 30
0.0
 10
11.876338636734
 20
-27.13998921584729
 30
0.0
 10
12.01681327823147
 20
-27.13998921584729
 30
0.0
 10
12.10345332658024
 20
-27.05250800198061
 30
0.0
  0
LINE
  5
21A1
102
{ACAD_REACTORS
330
2D1C
102
}
330
A
100
AcDbEntity
  8
0
370
    13
100
AcDbLine
 10
11.78927800562626
 20
-27.05250800198061
 30
0.0
 11
11.47215860535946
 21
-26.73454743619586
 31
0.0
  0
SPLINE
  5
21A3
102
{ACAD_REACTORS
330
2D1C
102
}
330
A
100
AcDbEntity
  8
0
370
    13
100
AcDbSpline
210
0.0
220
0.0
230
1.0
 70
     8
 71
     3
 72
     8
 73
     4
 74
     0
 42
0.0000000001
 43
0.0000000001
 40
0.0
 40
0.0
 40
0.0
 40
0.0
 40
1.0
 40
1.0
 40
1.0
 40
1.0
 10
41.74509992604773
 20
38.10711483905012
 30
0.0
 10
41.04062380476543
 20
37.84971819055773
 30
0.0
 10
40.53844799054982
 20
37.22136754864977
 30
0.0
 10
40.44465803529849
 20
36.47693606526486
 30
0.0
  0
SPLINE
  5
21A4
102
{ACAD_REACTORS
330
2D1C
102
}
330
A
100
AcDbEntity
  8
0
370
    13
100
AcDbSpline
210
0.0
220
0.0
230
1.0
 70
     8
 71
     3
 72
     8
 73
     4
 74
     0
 42
0.0000000001
 43
0.0000000001
 40
0.0
 40
0.0
 40
0.0
 40
0.0
 40
1.0
 40
1.0
 40
1.0
 40
1.0
 10
35.17391489982976
 20
-5.437500528618276
 30
0.0
 10
35.05657231007588
 20
-6.363623763880159
 30
0.0
 10
35.59575940708122
 20
-7.246847557726675
 30
0.0
 10
36.47351562506106
 20
-7.566490454547329
 30
0.0
  0
SPLINE
  5
21A6
102
{ACAD_REACTORS
330
2D1C
102
}
330
A
100
AcDbEntity
  8
0
370
    13
100
AcDbSpline
210
0.0
220
0.0
230
1.0
 70
     8
 71
     3
 72
     8
 73
     4
 74
     0
 42
0.0000000001
 43
0.0000000001
 40
0.0
 40
0.0
 40
0.0
 40
0.0
 40
1.0
 40
1.0
 40
1.0
 40
1.0
 10
38.18865211615914
 20
10.16359633278272
 30
0.0
 10
37.48417599487681
 20
9.907882015326235
 30
0.0
 10
36.98200018066124
 20
9.278690207900311
 30
0.0
 10
36.88778964265094
 20
8.534258724515435
 30
0.0
  0
SPLINE
  5
21A8
102
{ACAD_REACTORS
330
2D1C
102
}
330
A
100
AcDbEntity
  8
0
370
    13
100
AcDbSpline
210
0.0
220
0.0
230
1.0
 70
     8
 71
     3
 72
     8
 73
     4
 74
     0
 42
0.0000000001
 43
0.0000000001
 40
0.0
 40
0.0
 40
0.0
 40
0.0
 40
1.0
 40
1.0
 40
1.0
 40
1.0
 10
44.82797154933099
 20
15.739682551267
 30
0.0
 10
45.61782597068515
 20
16.02736115840555
 30
0.0
 10
46.14397500216229
 20
16.77852196593404
 30
0.0
 10
46.14397500216229
 20
17.61968748388311
 30
0.0
  0
SPLINE
  5
21A9
102
{ACAD_REACTORS
330
2D1C
102
}
330
A
100
AcDbEntity
  8
0
370
    13
100
AcDbSpline
210
0.0
220
0.0
230
1.0
 70
     8
 71
     3
 72
     8
 73
     4
 74
     0
 42
0.0000000001
 43
0.0000000001
 40
0.0
 40
0.0
 40
0.0
 40
0.0
 40
1.0
 40
1.0
 40
1.0
 40
1.0
 10
45.63591102932107
 20
-15.53064557848889
 30
0.0
 10
45.63591102932107
 20
-14.69116239157574
 30
0.0
 10
45.11144432887981
 20
-13.94084274956519
 30
0.0
 10
44.32327223856155
 20
-13.65232297690869
 30
0.0
  0
SPLINE
  5
21AA
102
{ACAD_REACTORS
330
2D1C
102
}
330
A
100
AcDbEntity
  8
0
370
    13
100
AcDbSpline
210
0.0
220
0.0
230
1.0
 70
     8
 71
     3
 72
     8
 73
     4
 74
     0
 42
0.0000000001
 43
0.0000000001
 40
0.0
 40
0.0
 40
0.0
 40
0.0
 40
1.0
 40
1.0
 40
1.0
 40
1.0
 10
-12.772099040507
 20
3.737091775652007
 30
0.0
 10
-12.04028503989135
 20
4.002900079323916
 30
0.0
 10
-11.5288564049783
 20
4.67078550057545
 30
0.0
 10
-11.46282491181933
 20
5.446340108124489
 30
0.0
  0
SPLINE
  5
21AB
102
{ACAD_REACTORS
330
2D1C
102
}
330
A
100
AcDbEntity
  8
0
370
    13
100
AcDbSpline
210
0.0
220
0.0
230
1.0
 70
     8
 71
     3
 72
     8
 73
     4
 74
     0
 42
0.0000000001
 43
0.0000000001
 40
0.0
 40
0.0
 40
0.0
 40
0.0
 40
1.0
 40
1.0
 40
1.0
 40
1.0
 10
-10.88536478374728
 20
15.08104995071286
 30
0.0
 10
-10.85844748717293
 20
15.94324460661064
 30
0.0
 10
-11.38754059796288
 20
16.72468737278533
 30
0.0
 10
-12.19674182622988
 20
17.02077763510337
 30
0.0
  0
SPLINE
  5
21AE
102
{ACAD_REACTORS
330
2D1C
102
}
330
A
100
AcDbEntity
  8
0
370
    13
100
AcDbSpline
210
0.0
220
0.0
230
1.0
 70
     8
 71
     3
 72
     8
 73
     4
 74
     0
 42
0.0000000001
 43
0.0000000001
 40
0.0
 40
0.0
 40
0.0
 40
0.0
 40
1.0
 40
1.0
 40
1.0
 40
1.0
 10
-14.54485536958463
 20
49.36106830369043
 30
0.0
 10
-13.66962264815866
 20
49.71604015226493
 30
0.0
 10
-13.17249382705077
 20
50.49832408395754
 30
0.0
 10
-13.33778285132775
 20
51.42781198129127
 30
0.0
  0
SPLINE
  5
21AF
102
{ACAD_REACTORS
330
2D1C
102
}
330
A
100
AcDbEntity
  8
0
370
    13
100
AcDbSpline
210
0.0
220
0.0
230
1.0
 70
     8
 71
     3
 72
     8
 73
     4
 74
     0
 42
0.0000000001
 43
0.0000000001
 40
0.0
 40
0.0
 40
0.0
 40
0.0
 40
1.0
 40
1.0
 40
1.0
 40
1.0
 10
-21.13160195788467
 20
43.41402809179068
 30
0.0
 10
-21.88528626196701
 20
43.10784384325724
 30
0.0
 10
-22.37862983824411
 20
42.37518867712359
 30
0.0
 10
-22.37862983824411
 20
41.56178162126686
 30
0.0
  0
SPLINE
  5
21B5
102
{ACAD_REACTORS
330
2D1C
102
}
330
A
100
AcDbEntity
  8
0
370
    13
100
AcDbSpline
210
0.0
220
0.0
230
1.0
 70
     8
 71
     3
 72
     8
 73
     4
 74
     0
 42
0.0000000001
 43
0.0000000001
 40
0.0
 40
0.0
 40
0.0
 40
0.0
 40
1.0
 40
1.0
 40
1.0
 40
1.0
 10
42.61949148195577
 20
-37.6369386212463
 30
0.0
 10
44.28541979025386
 20
-37.6369386212463
 30
0.0
 10
45.63591102932107
 20
-36.287709130456
 30
0.0
 10
45.63591102932107
 20
-34.62136023939894
 30
0.0
  0
LINE
  5
21B6
102
{ACAD_REACTORS
330
2D1C
102
}
330
A
100
AcDbEntity
  8
0
370
    13
100
AcDbLine
 10
-19.69068542563795
 20
19.75204207188394
 30
0.0
 11
-12.19674182622988
 21
17.02077763510337
 31
0.0
  0
LINE
  5
21BC
102
{ACAD_REACTORS
330
2D1C
102
}
330
A
100
AcDbEntity
  8
0
370
    13
100
AcDbLine
 10
42.61949148195577
 20
-37.6369386212463
 30
0.0
 11
36.20476324207631
 21
-37.6369386212463
 31
0.0
  0
LINE
  5
21BD
102
{ACAD_REACTORS
330
2D1C
102
}
330
A
100
AcDbEntity
  8
0
370
    13
100
AcDbLine
 10
45.63591102932107
 20
-15.49868128880683
 30
0.0
 11
45.63591102932107
 21
-34.65164219804513
 31
0.0
  0
LINE
  5
21BE
102
{ACAD_REACTORS
330
2D1C
102
}
330
A
100
AcDbEntity
  8
0
370
    13
100
AcDbLine
 10
39.08365222725695
 20
-11.68147216835405
 30
0.0
 11
44.32327223856155
 21
-13.65232297690869
 31
0.0
  0
LINE
  5
21BF
102
{ACAD_REACTORS
330
2D1C
102
}
330
A
100
AcDbEntity
  8
0
370
    13
100
AcDbLine
 10
44.82797154933099
 20
15.739682551267
 30
0.0
 11
40.57293577678573
 21
14.2154906327433
 31
0.0
  0
LINE
  5
21C0
102
{ACAD_REACTORS
330
2D1C
102
}
330
A
100
AcDbEntity
  8
0
370
    13
100
AcDbLine
 10
46.14397500216229
 20
36.86218987248555
 30
0.0
 11
46.14397500216229
 21
17.61968748388311
 31
0.0
  0
LINE
  5
21C1
102
{ACAD_REACTORS
330
2D1C
102
}
330
A
100
AcDbEntity
  8
0
370
    13
100
AcDbLine
 10
41.74509992604773
 20
38.10711483905012
 30
0.0
 11
43.4593952516279
 21
38.74135363958369
 31
0.0
  0
LINE
  5
21C2
102
{ACAD_REACTORS
330
2D1C
102
}
330
A
100
AcDbEntity
  8
0
370
    13
100
AcDbLine
 10
25.59472198142602
 20
-33.30236780034203
 30
0.0
 11
26.14274131636982
 21
-36.3230380822099
 31
0.0
  0
SPLINE
  5
21C7
102
{ACAD_REACTORS
330
2D1C
102
}
330
A
100
AcDbEntity
  8
0
370
    13
100
AcDbSpline
210
0.0
220
0.0
230
1.0
 70
     8
 71
     3
 72
     8
 73
     4
 74
     0
 42
0.0000000001
 43
0.0000000001
 40
0.0
 40
0.0
 40
0.0
 40
0.0
 40
1.0
 40
1.0
 40
1.0
 40
1.0
 10
-21.29899389595651
 20
-15.84776497875569
 30
0.0
 10
-21.29899389595651
 20
-16.27507706187378
 30
0.0
 10
-21.208568602777
 20
-16.69818331740216
 30
0.0
 10
-21.00122130260256
 20
-17.02707903492026
 30
0.0
  0
LINE
  5
21C8
102
{ACAD_REACTORS
330
2D1C
102
}
330
A
100
AcDbEntity
  8
0
370
    13
100
AcDbLine
 10
43.4593952516279
 20
-10.10765148427136
 30
0.0
 11
36.47351562506106
 21
-7.566490454547329
 31
0.0
  0
LINE
  5
21C9
102
{ACAD_REACTORS
330
2D1C
102
}
330
A
100
AcDbEntity
  8
0
370
    13
100
AcDbLine
 10
46.14397500216229
 20
10.18967246383914
 30
0.0
 11
46.14397500216229
 21
-8.228487717173205
 31
0.0
  0
LINE
  5
21CA
102
{ACAD_REACTORS
330
2D1C
102
}
330
A
100
AcDbEntity
  8
0
370
    13
100
AcDbLine
 10
38.18865211615914
 20
10.16359633278272
 30
0.0
 11
43.46023641714584
 21
12.06967739645528
 31
0.0
  0
LINE
  5
21CB
102
{ACAD_REACTORS
330
2D1C
102
}
330
A
100
AcDbEntity
  8
0
370
    13
100
AcDbLine
 10
-22.56915382805959
 20
49.05488405515698
 30
0.0
 11
-22.56957441081855
 21
63.02664330829067
 31
0.0
  0
LINE
  5
21CC
102
{ACAD_REACTORS
330
2D1C
102
}
330
A
100
AcDbEntity
  8
0
370
    13
100
AcDbLine
 10
-14.54485536958463
 20
49.36106830369043
 30
0.0
 11
-19.83788939127903
 21
47.18076728116651
 31
0.0
  0
LINE
  5
21CD
102
{ACAD_REACTORS
330
2D1C
102
}
330
A
100
AcDbEntity
  8
0
370
    13
100
AcDbLine
 10
-21.10846990614108
 20
64.51802977161435
 30
0.0
 11
-17.32995439951395
 21
64.51802977161434
 31
0.0
  0
LINE
  5
21CE
102
{ACAD_REACTORS
330
2D1C
102
}
330
A
100
AcDbEntity
  8
0
370
    13
100
AcDbLine
 10
-22.37862983824411
 20
25.3045756558656
 30
0.0
 11
-22.37820925548516
 21
41.592904745431
 31
0.0
  0
SPLINE
  5
21D1
102
{ACAD_REACTORS
330
2D1C
102
}
330
A
100
AcDbEntity
  8
0
370
    13
100
AcDbSpline
210
0.0
220
0.0
230
1.0
 70
     8
 71
     3
 72
     8
 73
     4
 74
     0
 42
0.0000000001
 43
0.0000000001
 40
0.0
 40
0.0
 40
0.0
 40
0.0
 40
1.0
 40
1.0
 40
1.0
 40
1.0
 10
42.90548775805844
 20
67.34434591192314
 30
0.0
 10
42.90548775805844
 20
67.22237691182051
 30
0.0
 10
43.00432470641745
 20
67.1222782151846
 30
0.0
 10
43.12755545479698
 20
67.1222782151846
 30
0.0
  0
SPLINE
  5
21D2
102
{ACAD_REACTORS
330
2D1C
102
}
330
A
100
AcDbEntity
  8
0
370
    13
100
AcDbSpline
210
0.0
220
0.0
230
1.0
 70
     8
 71
     3
 72
     8
 73
     4
 74
     0
 42
0.0000000001
 43
0.0000000001
 40
0.0
 40
0.0
 40
0.0
 40
0.0
 40
1.0
 40
1.0
 40
1.0
 40
1.0
 10
46.68400326468559
 20
67.1222782151846
 30
0.0
 10
46.80639284754718
 20
67.1222782151846
 30
0.0
 10
46.90649154418309
 20
67.22153574630261
 30
0.0
 10
46.90649154418309
 20
67.34434591192314
 30
0.0
  0
LINE
  5
21D9
102
{ACAD_REACTORS
330
2D1C
102
}
330
A
100
AcDbEntity
  8
0
370
    13
100
AcDbLine
 10
40.55569188366777
 20
64.13361712991164
 30
0.0
 11
40.04720732806757
 21
60.00938259540745
 31
0.0
  0
LINE
  5
21DA
102
{ACAD_REACTORS
330
2D1C
102
}
330
A
100
AcDbEntity
  8
0
370
    13
100
AcDbLine
 10
41.22231555664239
 20
64.32792636455785
 30
0.0
 11
40.77607724937044
 21
64.32792636455785
 31
0.0
  0
LINE
  5
21DB
102
{ACAD_REACTORS
330
2D1C
102
}
330
A
100
AcDbEntity
  8
0
370
    13
100
AcDbLine
 10
41.44438325338094
 20
64.89991891676322
 30
0.0
 11
41.44438325338094
 21
64.54999406129409
 31
0.0
  0
LINE
  5
21DC
102
{ACAD_REACTORS
330
2D1C
102
}
330
A
100
AcDbEntity
  8
0
370
    13
100
AcDbLine
 10
41.44438325338096
 20
73.18624043407926
 30
0.0
 11
41.44438325338094
 21
66.74123023555367
 31
0.0
  0
SPLINE
  5
21DD
102
{ACAD_REACTORS
330
2D1C
102
}
330
A
100
AcDbEntity
  8
0
370
    13
100
AcDbSpline
210
0.0
220
0.0
230
1.0
 70
     8
 71
     3
 72
     8
 73
     4
 74
     0
 42
0.0000000001
 43
0.0000000001
 40
0.0
 40
0.0
 40
0.0
 40
0.0
 40
1.0
 40
1.0
 40
1.0
 40
1.0
 10
42.42896749214032
 20
74.17124525559761
 30
0.0
 10
41.88557456754522
 20
74.17124525559761
 30
0.0
 10
41.44438325338096
 20
73.73047452419228
 30
0.0
 10
41.44438325338096
 20
73.18624043407926
 30
0.0
  0
LINE
  5
21DE
102
{ACAD_REACTORS
330
2D1C
102
}
330
A
100
AcDbEntity
  8
0
370
    13
100
AcDbLine
 10
43.19106345140047
 20
74.17124525559984
 30
0.0
 11
42.39700320245825
 21
74.17124525559763
 31
0.0
  0
LINE
  5
21E3
102
{ACAD_REACTORS
330
2D1C
102
}
330
A
100
AcDbEntity
  8
0
370
    13
100
AcDbLine
 10
46.68400326468701
 20
67.12227821518459
 30
0.0
 11
43.12755545479388
 21
67.12227821518459
 31
0.0
  0
LINE
  5
21E8
102
{ACAD_REACTORS
330
2D1C
102
}
330
A
100
AcDbEntity
  8
0
370
    13
100
AcDbLine
 10
35.17391489982976
 20
-5.437500528618276
 30
0.0
 11
36.88778964265094
 21
8.534258724515435
 31
0.0
  0
LINE
  5
21E9
102
{ACAD_REACTORS
330
2D1C
102
}
330
A
100
AcDbEntity
  8
0
370
    13
100
AcDbLine
 10
35.04311366178869
 20
-14.23945650843709
 30
0.0
 11
33.20138176023926
 21
-34.34629911502962
 31
0.0
  0
LINE
  5
21EA
102
{ACAD_REACTORS
330
2D1C
102
}
330
A
100
AcDbEntity
  8
0
370
    13
100
AcDbLine
 10
37.90433817109237
 20
16.34532172419029
 30
0.0
 11
40.44465803529849
 21
36.47693606526486
 31
0.0
  0
SPLINE
  5
21EC
102
{ACAD_REACTORS
330
2D1C
102
}
330
A
100
AcDbEntity
  8
0
370
    13
100
AcDbSpline
210
0.0
220
0.0
230
1.0
 70
     8
 71
     3
 72
     8
 73
     4
 74
     0
 42
0.0000000001
 43
0.0000000001
 40
0.0
 40
0.0
 40
0.0
 40
0.0
 40
1.0
 40
1.0
 40
1.0
 40
1.0
 10
-21.07692619921796
 20
64.51802977161434
 30
0.0
 10
-21.90084782404907
 20
64.51802977161434
 30
0.0
 10
-22.56831266254165
 20
63.85098551588077
 30
0.0
 10
-22.56957441081855
 20
63.02664330829067
 30
0.0
  0
SPLINE
  5
21F0
102
{ACAD_REACTORS
330
2D1C
102
}
330
A
100
AcDbEntity
  8
0
370
    13
100
AcDbSpline
210
0.0
220
0.0
230
1.0
 70
     8
 71
     3
 72
     8
 73
     4
 74
     0
 42
0.0000000001
 43
0.0000000001
 40
0.0
 40
0.0
 40
0.0
 40
0.0
 40
1.0
 40
1.0
 40
1.0
 40
1.0
 10
49.22432312889169
 20
-43.66977771597689
 30
0.0
 10
49.3467127117533
 20
-43.67061888149484
 30
0.0
 10
49.44639082563025
 20
-43.57052018485891
 30
0.0
 10
49.44639082563025
 20
-43.44855118475629
 30
0.0
  0
LINE
  5
21F1
102
{ACAD_REACTORS
330
2D1C
102
}
330
A
100
AcDbEntity
  8
0
370
    13
100
AcDbLine
 10
25.0597407120104
 20
-43.66977771597689
 30
0.0
 11
49.22738475827532
 21
-43.66977771597689
 31
0.0
  0
SPLINE
  5
21FB
102
{ACAD_REACTORS
330
2D1C
102
}
330
A
100
AcDbEntity
  8
0
370
    13
100
AcDbSpline
210
0.0
220
0.0
230
1.0
 70
     8
 71
     3
 72
     8
 73
     4
 74
     0
 42
0.0000000001
 43
0.0000000001
 40
0.0
 40
0.0
 40
0.0
 40
0.0
 40
1.0
 40
1.0
 40
1.0
 40
1.0
 10
41.44438325338094
 20
66.74123023555367
 30
0.0
 10
41.44438325338094
 20
66.63524338029211
 30
0.0
 10
41.51672348792454
 20
66.54523866987155
 30
0.0
 10
41.62018684663229
 20
66.52336836640486
 30
0.0
  0
SPLINE
  5
21FC
102
{ACAD_REACTORS
330
2D1C
102
}
330
A
100
AcDbEntity
  8
0
370
    13
100
AcDbSpline
210
0.0
220
0.0
230
1.0
 70
     8
 71
     3
 72
     8
 73
     4
 74
     0
 42
0.0000000001
 43
0.0000000001
 40
0.0
 40
0.0
 40
0.0
 40
0.0
 40
1.0
 40
1.0
 40
1.0
 40
1.0
 10
41.61934568111435
 20
65.11693962039406
 30
0.0
 10
41.51672348792454
 20
65.09422815140945
 30
0.0
 10
41.44438325338094
 20
65.00338227547096
 30
0.0
 10
41.44438325338094
 20
64.89991891676322
 30
0.0
  0
SPLINE
  5
21FE
102
{ACAD_REACTORS
330
2D1C
102
}
330
A
100
AcDbEntity
  8
0
370
    13
100
AcDbSpline
210
0.0
220
0.0
230
1.0
 70
     8
 71
     3
 72
     8
 73
     4
 74
     0
 42
0.0000000001
 43
0.0000000001
 40
0.0
 40
0.0
 40
0.0
 40
0.0
 40
1.0
 40
1.0
 40
1.0
 40
1.0
 10
26.48888092700586
 20
-26.6697776913138
 30
0.0
 10
28.00928760069875
 20
-26.6697776913138
 30
0.0
 10
29.29164443281207
 20
-25.53925123519024
 30
0.0
 10
29.48216842262753
 20
-24.03020029598966
 30
0.0
  0
SPLINE
  5
21FF
102
{ACAD_REACTORS
330
2D1C
102
}
330
A
100
AcDbEntity
  8
0
370
    13
100
AcDbSpline
210
0.0
220
0.0
230
1.0
 70
     8
 71
     3
 72
     8
 73
     4
 74
     0
 42
0.0000000001
 43
0.0000000001
 40
0.0
 40
0.0
 40
0.0
 40
0.0
 40
1.0
 40
1.0
 40
1.0
 40
1.0
 10
40.77607724937044
 20
64.32792636455785
 30
0.0
 10
40.66420223548321
 20
64.32792636455785
 30
0.0
 10
40.56957111471393
 20
64.2446509782809
 30
0.0
 10
40.55569188366777
 20
64.13361712991164
 30
0.0
  0
SPLINE
  5
2200
102
{ACAD_REACTORS
330
2D1C
102
}
330
A
100
AcDbEntity
  8
0
370
    13
100
AcDbSpline
210
0.0
220
0.0
230
1.0
 70
     8
 71
     3
 72
     8
 73
     4
 74
     0
 42
0.0000000001
 43
0.0000000001
 40
0.0
 40
0.0
 40
0.0
 40
0.0
 40
1.0
 40
1.0
 40
1.0
 40
1.0
 10
41.22231555664239
 20
64.32792636455785
 30
0.0
 10
41.344705139504
 20
64.32792636455785
 30
0.0
 10
41.44438325338096
 20
64.42718389567584
 30
0.0
 10
41.44438325338096
 20
64.54999406129639
 30
0.0
  0
SPLINE
  5
2202
102
{ACAD_REACTORS
330
2D1C
102
}
330
A
100
AcDbEntity
  8
0
370
    13
100
AcDbSpline
210
0.0
220
0.0
230
1.0
 70
     8
 71
     3
 72
     8
 73
     4
 74
     0
 42
0.0000000001
 43
0.0000000001
 40
0.0
 40
0.0
 40
0.0
 40
0.0
 40
1.0
 40
1.0
 40
1.0
 40
1.0
 10
-24.6455709091168
 20
75.3110245324186
 30
0.0
 10
-25.15784070954778
 20
75.27233091859293
 30
0.0
 10
-25.55402966850177
 20
74.84417766995687
 30
0.0
 10
-25.55402966850177
 20
74.33022553849001
 30
0.0
  0
LINE
  5
2203
102
{ACAD_REACTORS
330
2D1C
102
}
330
A
100
AcDbEntity
  8
0
370
    13
100
AcDbLine
 10
-11.58563507743987
 20
76.33051714017284
 30
0.0
 11
-24.66491771602965
 21
75.3143891944904
 31
0.0
  0
SPLINE
  5
2204
102
{ACAD_REACTORS
330
2D1C
102
}
330
A
100
AcDbEntity
  8
0
370
    13
100
AcDbSpline
210
0.0
220
0.0
230
1.0
 70
     8
 71
     3
 72
     8
 73
     4
 74
     0
 42
0.0000000001
 43
0.0000000001
 40
0.0
 40
0.0
 40
0.0
 40
0.0
 40
1.0
 40
1.0
 40
1.0
 40
1.0
 10
-10.56908654899846
 20
75.34635348417244
 30
0.0
 10
-10.56908654899846
 20
75.88974640876751
 30
0.0
 10
-11.07042119769606
 20
76.33051714017283
 30
0.0
 10
-11.61381412229117
 20
76.33051714017283
 30
0.0
  0
LINE
  5
2205
102
{ACAD_REACTORS
330
2D1C
102
}
330
A
100
AcDbEntity
  8
0
370
    13
100
AcDbLine
 10
-22.37820925548516
 20
73.47307787569992
 30
0.0
 11
-12.85116859919421
 21
74.2343326694438
 31
0.0
  0
SPLINE
  5
2207
102
{ACAD_REACTORS
330
2D1C
102
}
330
A
100
AcDbEntity
  8
0
370
    13
100
AcDbSpline
210
0.0
220
0.0
230
1.0
 70
     8
 71
     3
 72
     8
 73
     4
 74
     0
 42
0.0000000001
 43
0.0000000001
 40
0.0
 40
0.0
 40
0.0
 40
0.0
 40
1.0
 40
1.0
 40
1.0
 40
1.0
 10
-22.36643293823386
 20
73.47476020673581
 30
0.0
 10
-22.48251377971083
 20
73.4655073860384
 30
0.0
 10
-22.5720979073724
 20
73.36877335147422
 30
0.0
 10
-22.5720979073724
 20
73.25269250999724
 30
0.0
  0
MTEXT
  5
2732
330
A
100
AcDbEntity
  8
文字
370
    13
100
AcDbMText
 10
-37.08760129796928
 20
-77.67004888504789
 30
0.0
 40
5.0
 41
0.0
 71
     5
 72
     1
  1
{\fMS UI Gothic|b0|i0|c128|p17;B1712075}
 73
     1
 44
1.0
  0
LINE
  5
28A9
102
{ACAD_REACTORS
330
2D1C
102
}
330
A
100
AcDbEntity
  8
0
370
    13
100
AcDbLine
 10
12.5783416691434
 20
-42.65364977029444
 30
0.0
 11
23.91701735587662
 21
-42.65364977029444
 31
0.0
  0
SPLINE
  5
28AA
102
{ACAD_REACTORS
330
2D1C
102
}
330
A
100
AcDbEntity
  8
0
370
    13
100
AcDbSpline
210
0.0
220
0.0
230
1.0
 70
     8
 71
     3
 72
     8
 73
     4
 74
     0
 42
0.0000000001
 43
0.0000000001
 40
0.0
 40
0.0
 40
0.0
 40
0.0
 40
1.0
 40
1.0
 40
1.0
 40
1.0
 10
-22.37862983824411
 20
25.3045756558656
 30
0.0
 10
-22.37862983824411
 20
24.4642513034345
 30
0.0
 10
-21.85416313780288
 20
23.71477282694192
 30
0.0
 10
-21.06599104748462
 20
23.4245707232495
 30
0.0
  0
SPLINE
  5
28AB
102
{ACAD_REACTORS
330
2D1C
102
}
330
A
100
AcDbEntity
  8
0
370
    13
100
AcDbSpline
210
0.0
220
0.0
230
1.0
 70
    24
 71
     3
 72
     8
 73
     4
 74
     0
 42
0.0000000001
 43
0.0000000001
 40
1.0
 40
1.0
 40
1.0
 40
1.0
 40
2.0
 40
2.0
 40
2.0
 40
2.0
 10
-21.06599104748462
 20
23.4245707232495
 30
0.0
 10
-21.06599104748462
 20
23.4245707232495
 30
0.0
 10
-18.55679430744263
 20
22.53461760525937
 30
0.0
 10
-18.55679430744263
 20
22.53461760525937
 30
0.0
  0
SPLINE
  5
28AC
102
{ACAD_REACTORS
330
2D1C
102
}
330
A
100
AcDbEntity
  8
0
370
    13
100
AcDbSpline
210
0.0
220
0.0
230
1.0
 70
     8
 71
     3
 72
     8
 73
     4
 74
     0
 42
0.0000000001
 43
0.0000000001
 40
2.0
 40
2.0
 40
2.0
 40
2.0
 40
3.0
 40
3.0
 40
3.0
 40
3.0
 10
-18.55679430744263
 20
22.53461760525937
 30
0.0
 10
-17.71184354466279
 20
22.22506869465412
 30
0.0
 10
-16.7726822438727
 20
22.30918524644903
 30
0.0
 10
-15.99712763632366
 20
22.76425579165948
 30
0.0
  0
SPLINE
  5
28AD
102
{ACAD_REACTORS
330
2D1C
102
}
330
A
100
AcDbEntity
  8
0
370
    13
100
AcDbSpline
210
0.0
220
0.0
230
1.0
 70
    24
 71
     3
 72
     8
 73
     4
 74
     0
 42
0.0000000001
 43
0.0000000001
 40
3.0
 40
3.0
 40
3.0
 40
3.0
 40
4.0
 40
4.0
 40
4.0
 40
4.0
 10
-15.99712763632366
 20
22.76425579165948
 30
0.0
 10
-15.99712763632366
 20
22.76425579165948
 30
0.0
 10
-15.7817892637287
 20
22.87276614347491
 30
0.0
 10
-15.7817892637287
 20
22.87276614347491
 30
0.0
  0
SPLINE
  5
28AE
102
{ACAD_REACTORS
330
2D1C
102
}
330
A
100
AcDbEntity
  8
0
370
    13
100
AcDbSpline
210
0.0
220
0.0
230
1.0
 70
    24
 71
     3
 72
     8
 73
     4
 74
     0
 42
0.0000000001
 43
0.0000000001
 40
4.0
 40
4.0
 40
4.0
 40
4.0
 40
5.0
 40
5.0
 40
5.0
 40
5.0
 10
-15.7817892637287
 20
22.87276614347491
 30
0.0
 10
-15.7817892637287
 20
22.87276614347491
 30
0.0
 10
-15.73468399472355
 20
22.62462231567996
 30
0.0
 10
-15.73468399472355
 20
22.62462231567996
 30
0.0
  0
SPLINE
  5
28AF
102
{ACAD_REACTORS
330
2D1C
102
}
330
A
100
AcDbEntity
  8
0
370
    13
100
AcDbSpline
210
0.0
220
0.0
230
1.0
 70
     8
 71
     3
 72
     8
 73
     4
 74
     0
 42
0.0000000001
 43
0.0000000001
 40
5.0
 40
5.0
 40
5.0
 40
5.0
 40
6.0
 40
6.0
 40
6.0
 40
6.0
 10
-15.73468399472355
 20
22.62462231567996
 30
0.0
 10
-15.43270557377985
 20
21.60176504585389
 30
0.0
 10
-14.51709690749232
 20
20.88256852800747
 30
0.0
 10
-13.45176077900982
 20
20.82957510037667
 30
0.0
  0
SPLINE
  5
28B0
102
{ACAD_REACTORS
330
2D1C
102
}
330
A
100
AcDbEntity
  8
0
370
    13
100
AcDbSpline
210
0.0
220
0.0
230
1.0
 70
     8
 71
     3
 72
     8
 73
     4
 74
     0
 42
0.0000000001
 43
0.0000000001
 40
6.0
 40
6.0
 40
6.0
 40
6.0
 40
7.0
 40
7.0
 40
7.0
 40
7.0
 10
-13.45176077900982
 20
20.82957510037667
 30
0.0
 10
-12.38600406776841
 20
20.77826400378178
 30
0.0
 10
-11.40478449108083
 20
21.4049323146538
 30
0.0
 10
-11.00396912177811
 20
22.39330179824395
 30
0.0
  0
SPLINE
  5
28B1
102
{ACAD_REACTORS
330
2D1C
102
}
330
A
100
AcDbEntity
  8
0
370
    13
100
AcDbSpline
210
0.0
220
0.0
230
1.0
 70
     8
 71
     3
 72
     8
 73
     4
 74
     0
 42
0.0000000001
 43
0.0000000001
 40
7.0
 40
7.0
 40
7.0
 40
7.0
 40
8.0
 40
8.0
 40
8.0
 40
8.0
 10
-11.00396912177811
 20
22.39330179824395
 30
0.0
 10
-10.60357433523437
 20
23.38083011631615
 30
0.0
 10
-10.84751233543958
 20
24.54584435867558
 30
0.0
 10
-11.87247251906052
 20
25.32644595933228
 30
0.0
  0
SPLINE
  5
28B2
102
{ACAD_REACTORS
330
2D1C
102
}
330
A
100
AcDbEntity
  8
0
370
    13
100
AcDbSpline
210
0.0
220
0.0
230
1.0
 70
    24
 71
     3
 72
     8
 73
     4
 74
     0
 42
0.0000000001
 43
0.0000000001
 40
8.0
 40
8.0
 40
8.0
 40
8.0
 40
9.0
 40
9.0
 40
9.0
 40
9.0
 10
-11.87247251906052
 20
25.32644595933228
 30
0.0
 10
-11.87247251906052
 20
25.32644595933228
 30
0.0
 10
-11.70297766719378
 20
25.46607943531183
 30
0.0
 10
-11.70297766719378
 20
25.46607943531183
 30
0.0
  0
SPLINE
  5
28B3
102
{ACAD_REACTORS
330
2D1C
102
}
330
A
100
AcDbEntity
  8
0
370
    13
100
AcDbSpline
210
0.0
220
0.0
230
1.0
 70
     8
 71
     3
 72
     8
 73
     4
 74
     0
 42
0.0000000001
 43
0.0000000001
 40
9.0
 40
9.0
 40
9.0
 40
9.0
 40
10.0
 40
10.0
 40
10.0
 40
10.0
 10
-11.70297766719378
 20
25.46607943531183
 30
0.0
 10
-11.18860495296794
 20
26.04900713925051
 30
0.0
 10
-10.91901140446524
 20
26.80857960195851
 30
0.0
 10
-10.9497139458704
 20
27.5832930439896
 30
0.0
  0
SPLINE
  5
28B4
102
{ACAD_REACTORS
330
2D1C
102
}
330
A
100
AcDbEntity
  8
0
370
    13
100
AcDbSpline
210
0.0
220
0.0
230
1.0
 70
    24
 71
     3
 72
     8
 73
     4
 74
     0
 42
0.0000000001
 43
0.0000000001
 40
0.0
 40
0.0
 40
0.0
 40
0.0
 40
1.0
 40
1.0
 40
1.0
 40
1.0
 10
11.31444007074402
 20
-26.67061885683175
 30
0.0
 10
11.31444007074402
 20
-26.67061885683175
 30
0.0
 10
-10.08751928997263
 20
-26.67061885683175
 30
0.0
 10
-10.08751928997263
 20
-26.67061885683175
 30
0.0
  0
SPLINE
  5
28B5
102
{ACAD_REACTORS
330
2D1C
102
}
330
A
100
AcDbEntity
  8
0
370
    13
100
AcDbSpline
210
0.0
220
0.0
230
1.0
 70
     8
 71
     3
 72
    11
 73
     7
 74
     0
 42
0.0000000001
 43
0.0000000001
 40
1.0
 40
1.0
 40
1.0
 40
1.0
 40
2.0
 40
2.0
 40
2.0
 40
3.0
 40
3.0
 40
3.0
 40
3.0
 10
-10.08751928997263
 20
-26.67061885683175
 30
0.0
 10
-11.01616602178837
 20
-26.6697776913138
 30
0.0
 10
-11.89223990873232
 20
-26.48640360840087
 30
0.0
 10
-12.46423246093768
 20
-25.75543077330317
 30
0.0
 10
-13.03622501314299
 20
-25.02445793820545
 30
0.0
 10
-13.23894590296872
 20
-24.07057624085122
 30
0.0
 10
-13.01477529243533
 20
-23.16968797112779
 30
0.0
  0
SPLINE
  5
28B6
102
{ACAD_REACTORS
330
2D1C
102
}
330
A
100
AcDbEntity
  8
0
370
    13
100
AcDbSpline
210
0.0
220
0.0
230
1.0
 70
    24
 71
     3
 72
     8
 73
     4
 74
     0
 42
0.0000000001
 43
0.0000000001
 40
3.0
 40
3.0
 40
3.0
 40
3.0
 40
4.0
 40
4.0
 40
4.0
 40
4.0
 10
-13.01477529243533
 20
-23.16968797112779
 30
0.0
 10
-13.01477529243533
 20
-23.16968797112779
 30
0.0
 10
-11.13771443913203
 20
-15.19838519889903
 30
0.0
 10
-11.13771443913203
 20
-15.19838519889903
 30
0.0
  0
SPLINE
  5
28B7
102
{ACAD_REACTORS
330
2D1C
102
}
330
A
100
AcDbEntity
  8
0
370
    13
100
AcDbSpline
210
0.0
220
0.0
230
1.0
 70
    24
 71
     3
 72
     8
 73
     4
 74
     0
 42
0.0000000001
 43
0.0000000001
 40
4.0
 40
4.0
 40
4.0
 40
4.0
 40
5.0
 40
5.0
 40
5.0
 40
5.0
 10
-11.13771443913203
 20
-15.19838519889903
 30
0.0
 10
-11.13771443913203
 20
-15.19838519889903
 30
0.0
 10
-9.740538513818659
 20
-7.307411475018987
 30
0.0
 10
-9.740538513818659
 20
-7.307411475018987
 30
0.0
  0
SPLINE
  5
28B8
102
{ACAD_REACTORS
330
2D1C
102
}
330
A
100
AcDbEntity
  8
0
370
    13
100
AcDbSpline
210
0.0
220
0.0
230
1.0
 70
    24
 71
     3
 72
     8
 73
     4
 74
     0
 42
0.0000000001
 43
0.0000000001
 40
5.0
 40
5.0
 40
5.0
 40
5.0
 40
6.0
 40
6.0
 40
6.0
 40
6.0
 10
-9.740538513818659
 20
-7.307411475018987
 30
0.0
 10
-9.740538513818659
 20
-7.307411475018987
 30
0.0
 10
-8.725251733654125
 20
0.5684212695379514
 30
0.0
 10
-8.725251733654125
 20
0.5684212695379514
 30
0.0
  0
SPLINE
  5
28B9
102
{ACAD_REACTORS
330
2D1C
102
}
330
A
100
AcDbEntity
  8
0
370
    13
100
AcDbSpline
210
0.0
220
0.0
230
1.0
 70
    24
 71
     3
 72
     8
 73
     4
 74
     0
 42
0.0000000001
 43
0.0000000001
 40
6.0
 40
6.0
 40
6.0
 40
6.0
 40
7.0
 40
7.0
 40
7.0
 40
7.0
 10
-8.725251733654125
 20
0.5684212695379514
 30
0.0
 10
-8.725251733654125
 20
0.5684212695379514
 30
0.0
 10
-8.026663770997453
 20
8.506500262423118
 30
0.0
 10
-8.026663770997453
 20
8.506500262423118
 30
0.0
  0
SPLINE
  5
28BA
102
{ACAD_REACTORS
330
2D1C
102
}
330
A
100
AcDbEntity
  8
0
370
    13
100
AcDbSpline
210
0.0
220
0.0
230
1.0
 70
    24
 71
     3
 72
     8
 73
     4
 74
     0
 42
0.0000000001
 43
0.0000000001
 40
7.0
 40
7.0
 40
7.0
 40
7.0
 40
8.0
 40
8.0
 40
8.0
 40
8.0
 10
-8.026663770997453
 20
8.506500262423118
 30
0.0
 10
-8.026663770997453
 20
8.506500262423118
 30
0.0
 10
-7.644774625848569
 20
16.50850783467238
 30
0.0
 10
-7.644774625848569
 20
16.50850783467238
 30
0.0
  0
SPLINE
  5
28BB
102
{ACAD_REACTORS
330
2D1C
102
}
330
A
100
AcDbEntity
  8
0
370
    13
100
AcDbSpline
210
0.0
220
0.0
230
1.0
 70
    24
 71
     3
 72
     8
 73
     4
 74
     0
 42
0.0000000001
 43
0.0000000001
 40
8.0
 40
8.0
 40
8.0
 40
8.0
 40
9.0
 40
9.0
 40
9.0
 40
9.0
 10
-7.644774625848569
 20
16.50850783467238
 30
0.0
 10
-7.644774625848569
 20
16.50850783467238
 30
0.0
 10
-7.644774625848569
 20
24.44574566203963
 30
0.0
 10
-7.644774625848569
 20
24.44574566203963
 30
0.0
  0
SPLINE
  5
28BC
102
{ACAD_REACTORS
330
2D1C
102
}
330
A
100
AcDbEntity
  8
0
370
    13
100
AcDbSpline
210
0.0
220
0.0
230
1.0
 70
    24
 71
     3
 72
     8
 73
     4
 74
     0
 42
0.0000000001
 43
0.0000000001
 40
9.0
 40
9.0
 40
9.0
 40
9.0
 40
10.0
 40
10.0
 40
10.0
 40
10.0
 10
-7.644774625848569
 20
24.44574566203963
 30
0.0
 10
-7.644774625848569
 20
24.44574566203963
 30
0.0
 10
-8.026663770997453
 20
32.44775323428893
 30
0.0
 10
-8.026663770997453
 20
32.44775323428893
 30
0.0
  0
SPLINE
  5
28BD
102
{ACAD_REACTORS
330
2D1C
102
}
330
A
100
AcDbEntity
  8
0
370
    13
100
AcDbSpline
210
0.0
220
0.0
230
1.0
 70
    24
 71
     3
 72
     8
 73
     4
 74
     0
 42
0.0000000001
 43
0.0000000001
 40
10.0
 40
10.0
 40
10.0
 40
10.0
 40
11.0
 40
11.0
 40
11.0
 40
11.0
 10
-8.026663770997453
 20
32.44775323428893
 30
0.0
 10
-8.026663770997453
 20
32.44775323428893
 30
0.0
 10
-8.725251733654125
 20
40.38583222717411
 30
0.0
 10
-8.725251733654125
 20
40.38583222717411
 30
0.0
  0
SPLINE
  5
28BE
102
{ACAD_REACTORS
330
2D1C
102
}
330
A
100
AcDbEntity
  8
0
370
    13
100
AcDbSpline
210
0.0
220
0.0
230
1.0
 70
    24
 71
     3
 72
     8
 73
     4
 74
     0
 42
0.0000000001
 43
0.0000000001
 40
11.0
 40
11.0
 40
11.0
 40
11.0
 40
12.0
 40
12.0
 40
12.0
 40
12.0
 10
-8.725251733654125
 20
40.38583222717411
 30
0.0
 10
-8.725251733654125
 20
40.38583222717411
 30
0.0
 10
-9.740538513818659
 20
48.25998264069512
 30
0.0
 10
-9.740538513818659
 20
48.25998264069512
 30
0.0
  0
SPLINE
  5
28BF
102
{ACAD_REACTORS
330
2D1C
102
}
330
A
100
AcDbEntity
  8
0
370
    13
100
AcDbSpline
210
0.0
220
0.0
230
1.0
 70
    24
 71
     3
 72
     8
 73
     4
 74
     0
 42
0.0000000001
 43
0.0000000001
 40
12.0
 40
12.0
 40
12.0
 40
12.0
 40
13.0
 40
13.0
 40
13.0
 40
13.0
 10
-9.740538513818659
 20
48.25998264069512
 30
0.0
 10
-9.740538513818659
 20
48.25998264069512
 30
0.0
 10
-11.20122243573715
 20
56.13581538525206
 30
0.0
 10
-11.20122243573715
 20
56.13581538525206
 30
0.0
  0
SPLINE
  5
28C0
102
{ACAD_REACTORS
330
2D1C
102
}
330
A
100
AcDbEntity
  8
0
370
    13
100
AcDbSpline
210
0.0
220
0.0
230
1.0
 70
    24
 71
     3
 72
     8
 73
     4
 74
     0
 42
0.0000000001
 43
0.0000000001
 40
13.0
 40
13.0
 40
13.0
 40
13.0
 40
14.0
 40
14.0
 40
14.0
 40
14.0
 10
-11.20122243573715
 20
56.13581538525206
 30
0.0
 10
-11.20122243573715
 20
56.13581538525206
 30
0.0
 10
-12.91677950959426
 20
63.88294980556283
 30
0.0
 10
-12.91677950959426
 20
63.88294980556283
 30
0.0
  0
SPLINE
  5
28C1
102
{ACAD_REACTORS
330
2D1C
102
}
330
A
100
AcDbEntity
  8
0
370
    13
100
AcDbSpline
210
0.0
220
0.0
230
1.0
 70
    24
 71
     3
 72
     8
 73
     4
 74
     0
 42
0.0000000001
 43
0.0000000001
 40
0.0
 40
0.0
 40
0.0
 40
0.0
 40
1.0
 40
1.0
 40
1.0
 40
1.0
 10
-22.37905042100311
 20
17.8737194703037
 30
0.0
 10
-22.37905042100311
 20
17.8737194703037
 30
0.0
 10
-22.37905042100311
 20
4.328431134770186
 30
0.0
 10
-22.37905042100311
 20
4.328431134770186
 30
0.0
  0
SPLINE
  5
28C2
102
{ACAD_REACTORS
330
2D1C
102
}
330
A
100
AcDbEntity
  8
0
370
    13
100
AcDbSpline
210
0.0
220
0.0
230
1.0
 70
    24
 71
     3
 72
     8
 73
     4
 74
     0
 42
0.0000000001
 43
0.0000000001
 40
1.0
 40
1.0
 40
1.0
 40
1.0
 40
2.0
 40
2.0
 40
2.0
 40
2.0
 10
-22.37905042100311
 20
4.328431134770186
 30
0.0
 10
-22.37905042100311
 20
4.328431134770186
 30
0.0
 10
-22.37905042100311
 20
3.07593567854404
 30
0.0
 10
-22.37905042100311
 20
3.07593567854404
 30
0.0
  0
SPLINE
  5
28C3
102
{ACAD_REACTORS
330
2D1C
102
}
330
A
100
AcDbEntity
  8
0
370
    13
100
AcDbSpline
210
0.0
220
0.0
230
1.0
 70
     8
 71
     3
 72
     8
 73
     4
 74
     0
 42
0.0000000001
 43
0.0000000001
 40
2.0
 40
2.0
 40
2.0
 40
2.0
 40
3.0
 40
3.0
 40
3.0
 40
3.0
 10
-22.37905042100311
 20
3.07593567854404
 30
0.0
 10
-22.37905042100311
 20
2.424032402133563
 30
0.0
 10
-22.06024868970041
 20
1.8125050705846
 30
0.0
 10
-21.52610858580275
 20
1.438186415097277
 30
0.0
  0
SPLINE
  5
28C4
102
{ACAD_REACTORS
330
2D1C
102
}
330
A
100
AcDbEntity
  8
0
370
    13
100
AcDbSpline
210
0.0
220
0.0
230
1.0
 70
     8
 71
     3
 72
     8
 73
     4
 74
     0
 42
0.0000000001
 43
0.0000000001
 40
3.0
 40
3.0
 40
3.0
 40
3.0
 40
4.0
 40
4.0
 40
4.0
 40
4.0
 10
-21.52610858580275
 20
1.438186415097277
 30
0.0
 10
-20.99154789914615
 20
1.063026594091961
 30
0.0
 10
-20.30725975029458
 20
0.9738630491893811
 30
0.0
 10
-19.69405008770974
 20
1.196771911445881
 30
0.0
  0
SPLINE
  5
28C5
102
{ACAD_REACTORS
330
2D1C
102
}
330
A
100
AcDbEntity
  8
0
370
    13
100
AcDbSpline
210
0.0
220
0.0
230
1.0
 70
    24
 71
     3
 72
     8
 73
     4
 74
     0
 42
0.0000000001
 43
0.0000000001
 40
4.0
 40
4.0
 40
4.0
 40
4.0
 40
5.0
 40
5.0
 40
5.0
 40
5.0
 10
-19.69405008770974
 20
1.196771911445881
 30
0.0
 10
-19.69405008770974
 20
1.196771911445881
 30
0.0
 10
-12.772099040507
 20
3.737091775652007
 30
0.0
 10
-12.772099040507
 20
3.737091775652007
 30
0.0
  0
SPLINE
  5
28C6
102
{ACAD_REACTORS
330
2D1C
102
}
330
A
100
AcDbEntity
  8
0
370
    13
100
AcDbSpline
210
0.0
220
0.0
230
1.0
 70
     8
 71
     3
 72
     8
 73
     4
 74
     0
 42
0.0000000001
 43
0.0000000001
 40
0.0
 40
0.0
 40
0.0
 40
0.0
 40
1.0
 40
1.0
 40
1.0
 40
1.0
 10
-13.44250795831242
 20
-2.840822574709536
 30
0.0
 10
-13.34913858582005
 20
-2.146861022401602
 30
0.0
 10
-13.6258820412253
 20
-1.455422966647464
 30
0.0
 10
-14.17095729685626
 20
-1.017175731796025
 30
0.0
  0
SPLINE
  5
28C7
102
{ACAD_REACTORS
330
2D1C
102
}
330
A
100
AcDbEntity
  8
0
370
    13
100
AcDbSpline
210
0.0
220
0.0
230
1.0
 70
     8
 71
     3
 72
     8
 73
     4
 74
     0
 42
0.0000000001
 43
0.0000000001
 40
1.0
 40
1.0
 40
1.0
 40
1.0
 40
2.0
 40
2.0
 40
2.0
 40
2.0
 10
-14.17095729685626
 20
-1.017175731796025
 30
0.0
 10
-14.71645313524625
 20
-0.5780873314266061
 30
0.0
 10
-15.45121121517474
 20
-0.4561183313239881
 30
0.0
 10
-16.10816148469292
 20
-0.6958505039394826
 30
0.0
  0
SPLINE
  5
28C8
102
{ACAD_REACTORS
330
2D1C
102
}
330
A
100
AcDbEntity
  8
0
370
    13
100
AcDbSpline
210
0.0
220
0.0
230
1.0
 70
    24
 71
     3
 72
     8
 73
     4
 74
     0
 42
0.0000000001
 43
0.0000000001
 40
2.0
 40
2.0
 40
2.0
 40
2.0
 40
3.0
 40
3.0
 40
3.0
 40
3.0
 10
-16.10816148469292
 20
-0.6958505039394826
 30
0.0
 10
-16.10816148469292
 20
-0.6958505039394826
 30
0.0
 10
-16.48710655052898
 20
-0.8237076626677442
 30
0.0
 10
-16.48710655052898
 20
-0.8237076626677442
 30
0.0
  0
SPLINE
  5
28C9
102
{ACAD_REACTORS
330
2D1C
102
}
330
A
100
AcDbEntity
  8
0
370
    13
100
AcDbSpline
210
0.0
220
0.0
230
1.0
 70
    24
 71
     3
 72
     8
 73
     4
 74
     0
 42
0.0000000001
 43
0.0000000001
 40
3.0
 40
3.0
 40
3.0
 40
3.0
 40
4.0
 40
4.0
 40
4.0
 40
4.0
 10
-16.48710655052898
 20
-0.8237076626677442
 30
0.0
 10
-16.48710655052898
 20
-0.8237076626677442
 30
0.0
 10
-19.98256986036626
 20
-2.093026429252842
 30
0.0
 10
-19.98256986036626
 20
-2.093026429252842
 30
0.0
  0
SPLINE
  5
28CA
102
{ACAD_REACTORS
330
2D1C
102
}
330
A
100
AcDbEntity
  8
0
370
    13
100
AcDbSpline
210
0.0
220
0.0
230
1.0
 70
     8
 71
     3
 72
     8
 73
     4
 74
     0
 42
0.0000000001
 43
0.0000000001
 40
4.0
 40
4.0
 40
4.0
 40
4.0
 40
5.0
 40
5.0
 40
5.0
 40
5.0
 10
-19.98256986036626
 20
-2.093026429252842
 30
0.0
 10
-20.77242428172041
 20
-2.380705036391438
 30
0.0
 10
-21.29857331319755
 20
-3.131865843919936
 30
0.0
 10
-21.29857331319755
 20
-3.972190196351001
 30
0.0
  0
SPLINE
  5
28CB
102
{ACAD_REACTORS
330
2D1C
102
}
330
A
100
AcDbEntity
  8
0
370
    13
100
AcDbSpline
210
0.0
220
0.0
230
1.0
 70
     8
 71
     3
 72
     8
 73
     4
 74
     0
 42
0.0000000001
 43
0.0000000001
 40
0.0
 40
0.0
 40
0.0
 40
0.0
 40
1.0
 40
1.0
 40
1.0
 40
1.0
 10
-21.02940034745385
 20
-17.2558760558024
 30
0.0
 10
-21.87182761367982
 20
-18.28378031873612
 30
0.0
 10
-21.77971998946441
 20
-19.73058500960848
 30
0.0
 10
-20.85990549558712
 20
-20.62894978277806
 30
0.0
  0
SPLINE
  5
28CC
102
{ACAD_REACTORS
330
2D1C
102
}
330
A
100
AcDbEntity
  8
0
370
    13
100
AcDbSpline
210
0.0
220
0.0
230
1.0
 70
     8
 71
     3
 72
     8
 73
     4
 74
     0
 42
0.0000000001
 43
0.0000000001
 40
1.0
 40
1.0
 40
1.0
 40
1.0
 40
2.0
 40
2.0
 40
2.0
 40
2.0
 10
-20.85990549558712
 20
-20.62894978277806
 30
0.0
 10
-19.94009100170985
 20
-21.52563222491177
 30
0.0
 10
-18.49118339704259
 20
-21.58283148013229
 30
0.0
 10
-17.50323449621144
 20
-20.76101276909608
 30
0.0
  0
SPLINE
  5
28CD
102
{ACAD_REACTORS
330
2D1C
102
}
330
A
100
AcDbEntity
  8
0
370
    13
100
AcDbSpline
210
0.0
220
0.0
230
1.0
 70
     8
 71
     3
 72
     8
 73
     4
 74
     0
 42
0.0000000001
 43
0.0000000001
 40
2.0
 40
2.0
 40
2.0
 40
2.0
 40
3.0
 40
3.0
 40
3.0
 40
3.0
 10
-17.50323449621144
 20
-20.76101276909608
 30
0.0
 10
-16.5152855953803
 20
-19.94003522357782
 30
0.0
 10
-16.30835887796481
 20
-18.50332451892084
 30
0.0
 10
-17.00652625786253
 20
-17.43252081457169
 30
0.0
  0
SPLINE
  5
28CF
102
{ACAD_REACTORS
330
2D1C
102
}
330
A
100
AcDbEntity
  8
0
370
    13
100
AcDbSpline
210
0.0
220
0.0
230
1.0
 70
     8
 71
     3
 72
     8
 73
     4
 74
     0
 42
0.0000000001
 43
0.0000000001
 40
0.0
 40
0.0
 40
0.0
 40
0.0
 40
1.0
 40
1.0
 40
1.0
 40
1.0
 10
-19.69068542563795
 20
19.75204207188394
 30
0.0
 10
-20.30389508822277
 20
19.9757920996584
 30
0.0
 10
-20.9886038198333
 20
19.88746972027372
 30
0.0
 10
-21.52442625476685
 20
19.51230989926845
 30
0.0
  0
SPLINE
  5
28D0
102
{ACAD_REACTORS
330
2D1C
102
}
330
A
100
AcDbEntity
  8
0
370
    13
100
AcDbSpline
210
0.0
220
0.0
230
1.0
 70
     8
 71
     3
 72
     8
 73
     4
 74
     0
 42
0.0000000001
 43
0.0000000001
 40
1.0
 40
1.0
 40
1.0
 40
1.0
 40
2.0
 40
2.0
 40
2.0
 40
2.0
 10
-21.52442625476685
 20
19.51230989926845
 30
0.0
 10
-22.05940752418246
 20
19.13883240929907
 30
0.0
 10
-22.37905042100311
 20
18.52646391223217
 30
0.0
 10
-22.37905042100311
 20
17.8737194703037
 30
0.0
  0
SPLINE
  5
28D1
102
{ACAD_REACTORS
330
2D1C
102
}
330
A
100
AcDbEntity
  8
0
370
    13
100
AcDbSpline
210
0.0
220
0.0
230
1.0
 70
     8
 71
     3
 72
     8
 73
     4
 74
     0
 42
0.0000000001
 43
0.0000000001
 40
0.0
 40
0.0
 40
0.0
 40
0.0
 40
1.0
 40
1.0
 40
1.0
 40
1.0
 10
-13.55774763427144
 20
-36.27425048216883
 30
0.0
 10
-13.67340789298942
 20
-36.8613840136973
 30
0.0
 10
-13.53882141011758
 20
-37.46113502799496
 30
0.0
 10
-13.15903517876356
 20
-37.92377606286694
 30
0.0
  0
SPLINE
  5
28D2
102
{ACAD_REACTORS
330
2D1C
102
}
330
A
100
AcDbEntity
  8
0
370
    13
100
AcDbSpline
210
0.0
220
0.0
230
1.0
 70
     8
 71
     3
 72
     8
 73
     4
 74
     0
 42
0.0000000001
 43
0.0000000001
 40
1.0
 40
1.0
 40
1.0
 40
1.0
 40
2.0
 40
2.0
 40
2.0
 40
2.0
 10
-13.15903517876356
 20
-37.92377606286694
 30
0.0
 10
-12.7788283646506
 20
-38.38557593222098
 30
0.0
 10
-12.21230338831193
 20
-38.65306656692878
 30
0.0
 10
-11.61465528780912
 20
-38.65306656692878
 30
0.0
  0
SPLINE
  5
28D5
102
{ACAD_REACTORS
330
2D1C
102
}
330
A
100
AcDbEntity
  8
0
370
    13
100
AcDbSpline
210
0.0
220
0.0
230
1.0
 70
     8
 71
     3
 72
     8
 73
     4
 74
     0
 42
0.0000000001
 43
0.0000000001
 40
0.0
 40
0.0
 40
0.0
 40
0.0
 40
1.0
 40
1.0
 40
1.0
 40
1.0
 10
-16.93670951987273
 20
-17.11876607637669
 30
0.0
 10
-16.1960632813186
 20
-16.72762411053038
 30
0.0
 10
-15.68968163951329
 20
-16.01347458579163
 30
0.0
 10
-15.51934562212862
 20
-15.19081470923748
 30
0.0
  0
SPLINE
  5
28D6
102
{ACAD_REACTORS
330
2D1C
102
}
330
A
100
AcDbEntity
  8
0
370
    13
100
AcDbSpline
210
0.0
220
0.0
230
1.0
 70
    24
 71
     3
 72
     8
 73
     4
 74
     0
 42
0.0000000001
 43
0.0000000001
 40
1.0
 40
1.0
 40
1.0
 40
1.0
 40
2.0
 40
2.0
 40
2.0
 40
2.0
 10
-15.51934562212862
 20
-15.19081470923748
 30
0.0
 10
-15.51934562212862
 20
-15.19081470923748
 30
0.0
 10
-14.3770428487538
 20
-9.021706800599162
 30
0.0
 10
-14.3770428487538
 20
-9.021706800599162
 30
0.0
  0
SPLINE
  5
28D7
102
{ACAD_REACTORS
330
2D1C
102
}
330
A
100
AcDbEntity
  8
0
370
    13
100
AcDbSpline
210
0.0
220
0.0
230
1.0
 70
    24
 71
     3
 72
     8
 73
     4
 74
     0
 42
0.0000000001
 43
0.0000000001
 40
2.0
 40
2.0
 40
2.0
 40
2.0
 40
3.0
 40
3.0
 40
3.0
 40
3.0
 10
-14.3770428487538
 20
-9.021706800599162
 30
0.0
 10
-14.3770428487538
 20
-9.021706800599162
 30
0.0
 10
-13.44250795831242
 20
-2.840822574709536
 30
0.0
 10
-13.44250795831242
 20
-2.840822574709536
 30
0.0
  0
SPLINE
  5
28D8
102
{ACAD_REACTORS
330
2D1C
102
}
330
A
100
AcDbEntity
  8
0
370
    13
100
AcDbSpline
210
0.0
220
0.0
230
1.0
 70
     8
 71
     3
 72
     8
 73
     4
 74
     0
 42
0.0000000001
 43
0.0000000001
 40
0.0
 40
0.0
 40
0.0
 40
0.0
 40
1.0
 40
1.0
 40
1.0
 40
1.0
 10
-16.93670951987273
 20
-17.11876607637669
 30
0.0
 10
-16.98928236474459
 20
-17.14904803502285
 30
0.0
 10
-17.0250318992574
 20
-17.2012002971357
 30
0.0
 10
-17.03891113030355
 20
-17.26008188339212
 30
0.0
  0
SPLINE
  5
28D9
102
{ACAD_REACTORS
330
2D1C
102
}
330
A
100
AcDbEntity
  8
0
370
    13
100
AcDbSpline
210
0.0
220
0.0
230
1.0
 70
     8
 71
     3
 72
     8
 73
     4
 74
     0
 42
0.0000000001
 43
0.0000000001
 40
1.0
 40
1.0
 40
1.0
 40
1.0
 40
2.0
 40
2.0
 40
2.0
 40
2.0
 10
-17.03891113030355
 20
-17.26008188339212
 30
0.0
 10
-17.05194919583175
 20
-17.32064580068447
 30
0.0
 10
-17.04059346133945
 20
-17.38205088349475
 30
0.0
 10
-17.00652625786253
 20
-17.43252081457169
 30
0.0
  0
LINE
  5
28DA
102
{ACAD_REACTORS
330
2D1C
102
}
330
A
100
AcDbEntity
  8
0
370
    13
100
AcDbLine
 10
-10.88536478374728
 20
15.08104995071286
 30
0.0
 11
-11.07462702528582
 21
10.28388300184946
 31
0.0
  0
LINE
  5
28DB
102
{ACAD_REACTORS
330
2D1C
102
}
330
A
100
AcDbEntity
  8
0
370
    13
100
AcDbLine
 10
-11.07462702528582
 20
10.28388300184946
 30
0.0
 11
-11.4552544221578
 21
5.458116425375749
 31
0.0
  0
SPLINE
  5
28DC
102
{ACAD_REACTORS
330
2D1C
102
}
330
A
100
AcDbEntity
  8
0
370
    13
100
AcDbSpline
210
0.0
220
0.0
230
1.0
 70
    24
 71
     3
 72
     8
 73
     4
 74
     0
 42
0.0000000001
 43
0.0000000001
 40
0.0
 40
0.0
 40
0.0
 40
0.0
 40
1.0
 40
1.0
 40
1.0
 40
1.0
 10
-13.33778285132775
 20
51.42781198129127
 30
0.0
 10
-13.33778285132775
 20
51.42781198129127
 30
0.0
 10
-14.50363825920512
 20
57.46906273120131
 30
0.0
 10
-14.50363825920512
 20
57.46906273120131
 30
0.0
  0
SPLINE
  5
28DD
102
{ACAD_REACTORS
330
2D1C
102
}
330
A
100
AcDbEntity
  8
0
370
    13
100
AcDbSpline
210
0.0
220
0.0
230
1.0
 70
    24
 71
     3
 72
     8
 73
     4
 74
     0
 42
0.0000000001
 43
0.0000000001
 40
1.0
 40
1.0
 40
1.0
 40
1.0
 40
2.0
 40
2.0
 40
2.0
 40
2.0
 10
-14.50363825920512
 20
57.46906273120131
 30
0.0
 10
-14.50363825920512
 20
57.46906273120131
 30
0.0
 10
-15.88188796036464
 20
63.38834448100878
 30
0.0
 10
-15.88188796036464
 20
63.38834448100878
 30
0.0
  0
SPLINE
  5
28DE
102
{ACAD_REACTORS
330
2D1C
102
}
330
A
100
AcDbEntity
  8
0
370
    13
100
AcDbSpline
210
0.0
220
0.0
230
1.0
 70
     8
 71
     3
 72
     8
 73
     4
 74
     0
 42
0.0000000001
 43
0.0000000001
 40
2.0
 40
2.0
 40
2.0
 40
2.0
 40
3.0
 40
3.0
 40
3.0
 40
3.0
 10
-15.88188796036464
 20
63.38834448100878
 30
0.0
 10
-16.04801815015957
 20
64.05202407467055
 30
0.0
 10
-16.64482508514442
 20
64.51802977161434
 30
0.0
 10
-17.32995439951395
 20
64.51802977161434
 30
0.0
  0
SPLINE
  5
28DF
102
{ACAD_REACTORS
330
2D1C
102
}
330
A
100
AcDbEntity
  8
0
370
    13
100
AcDbSpline
210
0.0
220
0.0
230
1.0
 70
     8
 71
     3
 72
     8
 73
     4
 74
     0
 42
0.0000000001
 43
0.0000000001
 40
0.0
 40
0.0
 40
0.0
 40
0.0
 40
1.0
 40
1.0
 40
1.0
 40
1.0
 10
-22.56915382805959
 20
49.05488405515698
 30
0.0
 10
-22.56915382805959
 20
48.38952213045928
 30
0.0
 10
-22.2385757795056
 20
47.76790081269494
 30
0.0
 10
-21.68508886869513
 20
47.39442332272556
 30
0.0
  0
SPLINE
  5
28E0
102
{ACAD_REACTORS
330
2D1C
102
}
330
A
100
AcDbEntity
  8
0
370
    13
100
AcDbSpline
210
0.0
220
0.0
230
1.0
 70
     8
 71
     3
 72
     8
 73
     4
 74
     0
 42
0.0000000001
 43
0.0000000001
 40
1.0
 40
1.0
 40
1.0
 40
1.0
 40
2.0
 40
2.0
 40
2.0
 40
2.0
 10
-21.68508886869513
 20
47.39442332272556
 30
0.0
 10
-21.13328428892057
 20
47.02431049482799
 30
0.0
 10
-20.43217282971003
 20
46.95028792924847
 30
0.0
 10
-19.83788939127903
 20
47.18076728116651
 30
0.0
  0
LINE
  5
28E1
102
{ACAD_REACTORS
330
2D1C
102
}
330
A
100
AcDbEntity
  8
0
370
    13
100
AcDbLine
 10
-12.42638001262996
 20
44.30734587185255
 30
0.0
 11
-11.45567500491675
 21
35.94027246481337
 31
0.0
  0
LINE
  5
28E2
102
{ACAD_REACTORS
330
2D1C
102
}
330
A
100
AcDbEntity
  8
0
370
    13
100
AcDbLine
 10
-11.45567500491675
 20
35.94027246481337
 30
0.0
 11
-10.9497139458704
 21
27.5832930439896
 31
0.0
  0
SPLINE
  5
28E3
102
{ACAD_REACTORS
330
2D1C
102
}
330
A
100
AcDbEntity
  8
0
370
    13
100
AcDbSpline
210
0.0
220
0.0
230
1.0
 70
     8
 71
     3
 72
     8
 73
     4
 74
     0
 42
0.0000000001
 43
0.0000000001
 40
0.0
 40
0.0
 40
0.0
 40
0.0
 40
1.0
 40
1.0
 40
1.0
 40
1.0
 10
-12.42638001262996
 20
44.30734587185255
 30
0.0
 10
-12.5100759816659
 20
44.91971436891948
 30
0.0
 10
-12.87177715438396
 20
45.45974263144272
 30
0.0
 10
-13.40675842379956
 20
45.76929154204798
 30
0.0
  0
SPLINE
  5
28E4
102
{ACAD_REACTORS
330
2D1C
102
}
330
A
100
AcDbEntity
  8
0
370
    13
100
AcDbSpline
210
0.0
220
0.0
230
1.0
 70
     8
 71
     3
 72
     8
 73
     4
 74
     0
 42
0.0000000001
 43
0.0000000001
 40
1.0
 40
1.0
 40
1.0
 40
1.0
 40
2.0
 40
2.0
 40
2.0
 40
2.0
 10
-13.40675842379956
 20
45.76929154204798
 30
0.0
 10
-13.9413191104562
 20
46.07968161817121
 30
0.0
 10
-14.58943714203593
 20
46.12426339062252
 30
0.0
 10
-15.16227085975924
 20
45.89126054215063
 30
0.0
  0
SPLINE
  5
28E5
102
{ACAD_REACTORS
330
2D1C
102
}
330
A
100
AcDbEntity
  8
0
370
    13
100
AcDbSpline
210
0.0
220
0.0
230
1.0
 70
     8
 71
     3
 72
     8
 73
     4
 74
     0
 42
0.0000000001
 43
0.0000000001
 40
0.0
 40
0.0
 40
0.0
 40
0.0
 40
1.0
 40
1.0
 40
1.0
 40
1.0
 10
-12.43983866091712
 20
64.51802977161434
 30
0.0
 10
-12.58662204379925
 20
64.51802977161434
 30
0.0
 10
-12.72499377150188
 20
64.45157769569637
 30
0.0
 10
-12.81583964744035
 20
64.3354968542194
 30
0.0
  0
SPLINE
  5
28E6
102
{ACAD_REACTORS
330
2D1C
102
}
330
A
100
AcDbEntity
  8
0
370
    13
100
AcDbSpline
210
0.0
220
0.0
230
1.0
 70
     8
 71
     3
 72
     8
 73
     4
 74
     0
 42
0.0000000001
 43
0.0000000001
 40
1.0
 40
1.0
 40
1.0
 40
1.0
 40
2.0
 40
2.0
 40
2.0
 40
2.0
 10
-12.81583964744035
 20
64.3354968542194
 30
0.0
 10
-12.90500319234297
 20
64.2202571782604
 30
0.0
 10
-12.93780864754296
 20
64.06968855054753
 30
0.0
 10
-12.90247969578912
 20
63.92753157801414
 30
0.0
  0
SPLINE
  5
28E7
102
{ACAD_REACTORS
330
2D1C
102
}
330
A
100
AcDbEntity
  8
0
370
    13
100
AcDbSpline
210
0.0
220
0.0
230
1.0
 70
     8
 71
     3
 72
     8
 73
     4
 74
     0
 42
0.0000000001
 43
0.0000000001
 40
0.0
 40
0.0
 40
0.0
 40
0.0
 40
1.0
 40
1.0
 40
1.0
 40
1.0
 10
-12.59671603001465
 20
74.01226497270524
 30
0.0
 10
-12.59671603001465
 20
74.07451122103346
 30
0.0
 10
-12.56138707826076
 20
74.13339280728992
 30
0.0
 10
-12.60596885071207
 20
74.17629224870534
 30
0.0
  0
SPLINE
  5
28E8
102
{ACAD_REACTORS
330
2D1C
102
}
330
A
100
AcDbEntity
  8
0
370
    13
100
AcDbSpline
210
0.0
220
0.0
230
1.0
 70
     8
 71
     3
 72
     8
 73
     4
 74
     0
 42
0.0000000001
 43
0.0000000001
 40
1.0
 40
1.0
 40
1.0
 40
1.0
 40
2.0
 40
2.0
 40
2.0
 40
2.0
 10
-12.60596885071207
 20
74.17629224870534
 30
0.0
 10
-12.65181237144031
 20
74.21750935908484
 30
0.0
 10
-12.71321745425058
 20
74.23853849703355
 30
0.0
 10
-12.77420195430189
 20
74.2343326694438
 30
0.0
  0
SPLINE
  5
28E9
102
{ACAD_REACTORS
330
2D1C
102
}
330
A
100
AcDbEntity
  8
0
370
    13
100
AcDbSpline
210
0.0
220
0.0
230
1.0
 70
    24
 71
     3
 72
     8
 73
     4
 74
     0
 42
0.0000000001
 43
0.0000000001
 40
0.0094274872746202
 40
0.0094274872746202
 40
0.0094274872746202
 40
0.0094274872746202
 40
1.0
 40
1.0
 40
1.0
 40
1.0
 10
49.44639082563025
 20
-43.44855395382658
 30
0.0
 10
49.44639082563025
 20
-41.27551242613772
 30
0.0
 10
49.44639082563025
 20
73.94917755885909
 30
0.0
 10
49.44639082563025
 20
73.94917755885909
 30
0.0
  0
SPLINE
  5
28EA
102
{ACAD_REACTORS
330
2D1C
102
}
330
A
100
AcDbEntity
  8
0
370
    13
100
AcDbSpline
210
0.0
220
0.0
230
1.0
 70
     8
 71
     3
 72
     8
 73
     4
 74
     0
 42
0.0000000001
 43
0.0000000001
 40
1.0
 40
1.0
 40
1.0
 40
1.0
 40
2.0
 40
2.0
 40
2.0
 40
2.0
 10
49.44639082563025
 20
73.94917755885909
 30
0.0
 10
49.44639082563025
 20
74.07198772447964
 30
0.0
 10
49.3467127117533
 20
74.17124525559763
 30
0.0
 10
49.22432312889169
 20
74.17124525559763
 30
0.0
  0
SPLINE
  5
28EB
102
{ACAD_REACTORS
330
2D1C
102
}
330
A
100
AcDbEntity
  8
0
370
    13
100
AcDbSpline
210
0.0
220
0.0
230
1.0
 70
    24
 71
     3
 72
     8
 73
     4
 74
     0
 42
0.0000000001
 43
0.0000000001
 40
2.0
 40
2.0
 40
2.0
 40
2.0
 40
3.0
 40
3.0
 40
3.0
 40
3.0
 10
49.22432312889169
 20
74.17124525559763
 30
0.0
 10
49.22432312889169
 20
74.17124525559763
 30
0.0
 10
46.62049526808042
 20
74.17124525559763
 30
0.0
 10
46.62049526808042
 20
74.17124525559763
 30
0.0
  0
SPLINE
  5
28EE
102
{ACAD_REACTORS
330
2D1C
102
}
330
A
100
AcDbEntity
  8
0
370
    13
100
AcDbSpline
210
0.0
220
0.0
230
1.0
 70
     8
 71
     3
 72
     8
 73
     4
 74
     0
 42
0.0000000001
 43
0.0000000001
 40
0.0
 40
0.0
 40
0.0
 40
0.0
 40
1.0
 40
1.0
 40
1.0
 40
1.0
 10
24.20385479749725
 20
-38.65306656692878
 30
0.0
 10
24.80150289800006
 20
-38.65306656692878
 30
0.0
 10
25.36718670882079
 20
-38.38557593222098
 30
0.0
 10
25.74739352293376
 20
-37.92377606286694
 30
0.0
  0
SPLINE
  5
28EF
102
{ACAD_REACTORS
330
2D1C
102
}
330
A
100
AcDbEntity
  8
0
370
    13
100
AcDbSpline
210
0.0
220
0.0
230
1.0
 70
     8
 71
     3
 72
     8
 73
     4
 74
     0
 42
0.0000000001
 43
0.0000000001
 40
1.0
 40
1.0
 40
1.0
 40
1.0
 40
2.0
 40
2.0
 40
2.0
 40
2.0
 10
25.74739352293376
 20
-37.92377606286694
 30
0.0
 10
26.12717975428775
 20
-37.46113502799496
 30
0.0
 10
26.25798099232884
 20
-36.91017161373835
 30
0.0
 10
26.14274131636982
 20
-36.3230380822099
 30
0.0
  0
SPLINE
  5
28F0
102
{ACAD_REACTORS
330
2D1C
102
}
330
A
100
AcDbEntity
  8
0
370
    13
100
AcDbSpline
210
0.0
220
0.0
230
1.0
 70
     8
 71
     3
 72
     8
 73
     4
 74
     0
 42
0.0000000001
 43
0.0000000001
 40
0.0
 40
0.0
 40
0.0
 40
0.0
 40
1.0
 40
1.0
 40
1.0
 40
1.0
 10
33.20138176023926
 20
-34.34629911502962
 30
0.0
 10
33.12399453258795
 20
-35.19082929505044
 30
0.0
 10
33.40536439834189
 20
-36.02778898540975
 30
0.0
 10
33.97735695054725
 20
-36.65361613076385
 30
0.0
  0
SPLINE
  5
28F1
102
{ACAD_REACTORS
330
2D1C
102
}
330
A
100
AcDbEntity
  8
0
370
    13
100
AcDbSpline
210
0.0
220
0.0
230
1.0
 70
     8
 71
     3
 72
     8
 73
     4
 74
     0
 42
0.0000000001
 43
0.0000000001
 40
1.0
 40
1.0
 40
1.0
 40
1.0
 40
2.0
 40
2.0
 40
2.0
 40
2.0
 10
33.97735695054725
 20
-36.65361613076385
 30
0.0
 10
34.54850833723467
 20
-37.28028444163587
 30
0.0
 10
35.35728898274266
 20
-37.6369386212463
 30
0.0
 10
36.20476324207631
 20
-37.6369386212463
 30
0.0
  0
SPLINE
  5
28F2
102
{ACAD_REACTORS
330
2D1C
102
}
330
A
100
AcDbEntity
  8
0
370
    13
100
AcDbSpline
210
0.0
220
0.0
230
1.0
 70
     8
 71
     3
 72
     8
 73
     4
 74
     0
 42
0.0000000001
 43
0.0000000001
 40
0.0
 40
0.0
 40
0.0
 40
0.0
 40
1.0
 40
1.0
 40
1.0
 40
1.0
 10
39.08365222725695
 20
-11.68147216835405
 30
0.0
 10
38.20421367824121
 20
-11.36014694049751
 30
0.0
 10
37.22467643258954
 20
-11.46445146472321
 30
0.0
 10
36.43313968019949
 20
-11.96662727893876
 30
0.0
  0
SPLINE
  5
28F3
102
{ACAD_REACTORS
330
2D1C
102
}
330
A
100
AcDbEntity
  8
0
370
    13
100
AcDbSpline
210
0.0
220
0.0
230
1.0
 70
     8
 71
     3
 72
     8
 73
     4
 74
     0
 42
0.0000000001
 43
0.0000000001
 40
1.0
 40
1.0
 40
1.0
 40
1.0
 40
2.0
 40
2.0
 40
2.0
 40
2.0
 10
36.43313968019949
 20
-11.96662727893876
 30
0.0
 10
35.64160292780943
 20
-12.46796192763641
 30
0.0
 10
35.12807137910154
 20
-13.30744511454957
 30
0.0
 10
35.04311366178869
 20
-14.23945650843709
 30
0.0
  0
SPLINE
  5
28F4
102
{ACAD_REACTORS
330
2D1C
102
}
330
A
100
AcDbEntity
  8
0
370
    13
100
AcDbSpline
210
0.0
220
0.0
230
1.0
 70
     8
 71
     3
 72
     8
 73
     4
 74
     0
 42
0.0000000001
 43
0.0000000001
 40
0.0
 40
0.0
 40
0.0
 40
0.0
 40
1.0
 40
1.0
 40
1.0
 40
1.0
 10
37.90433817109237
 20
16.34532172419029
 30
0.0
 10
37.81727753998464
 20
15.65388366843618
 30
0.0
 10
38.09654449194374
 20
14.96665144027178
 30
0.0
 10
38.64077858205676
 20
14.53176886749216
 30
0.0
  0
SPLINE
  5
28F5
102
{ACAD_REACTORS
330
2D1C
102
}
330
A
100
AcDbEntity
  8
0
370
    13
100
AcDbSpline
210
0.0
220
0.0
230
1.0
 70
     8
 71
     3
 72
     8
 73
     4
 74
     0
 42
0.0000000001
 43
0.0000000001
 40
1.0
 40
1.0
 40
1.0
 40
1.0
 40
2.0
 40
2.0
 40
2.0
 40
2.0
 10
38.64077858205676
 20
14.53176886749216
 30
0.0
 10
39.18585383768776
 20
14.09772746023042
 30
0.0
 10
39.91808842106241
 20
13.97659962564577
 30
0.0
 10
40.57293577678573
 20
14.2154906327433
 30
0.0
  0
SPLINE
  5
28F6
102
{ACAD_REACTORS
330
2D1C
102
}
330
A
100
AcDbEntity
  8
0
370
    13
100
AcDbSpline
210
0.0
220
0.0
230
1.0
 70
     8
 71
     3
 72
     8
 73
     4
 74
     0
 42
0.0000000001
 43
0.0000000001
 40
0.0
 40
0.0
 40
0.0
 40
0.0
 40
1.0
 40
1.0
 40
1.0
 40
1.0
 10
32.54401090796207
 20
0.4691637384199434
 30
0.0
 10
32.20544178698757
 20
0.2756956692916626
 30
0.0
 10
31.97748593162336
 20
-0.0649763654776994
 30
0.0
 10
31.92911891434131
 20
-0.4519125037342324
 30
0.0
  0
SPLINE
  5
28F7
102
{ACAD_REACTORS
330
2D1C
102
}
330
A
100
AcDbEntity
  8
0
370
    13
100
AcDbSpline
210
0.0
220
0.0
230
1.0
 70
     8
 71
     3
 72
     8
 73
     4
 74
     0
 42
0.0000000001
 43
0.0000000001
 40
1.0
 40
1.0
 40
1.0
 40
1.0
 40
2.0
 40
2.0
 40
2.0
 40
2.0
 10
31.92911891434131
 20
-0.4519125037342324
 30
0.0
 10
31.87991073154131
 20
-0.838848641990808
 30
0.0
 10
32.01617954544903
 20
-1.224943614729432
 30
0.0
 10
32.29586708016709
 20
-1.49664007702697
 30
0.0
  0
SPLINE
  5
28F8
102
{ACAD_REACTORS
330
2D1C
102
}
330
A
100
AcDbEntity
  8
0
370
    13
100
AcDbSpline
210
0.0
220
0.0
230
1.0
 70
     8
 71
     3
 72
     8
 73
     4
 74
     0
 42
0.0000000001
 43
0.0000000001
 40
0.0
 40
0.0
 40
0.0
 40
0.0
 40
1.0
 40
1.0
 40
1.0
 40
1.0
 10
31.33735897246415
 20
-9.438083731983942
 30
0.0
 10
30.99878985148967
 20
-9.631551801112223
 30
0.0
 10
30.77041341336649
 20
-9.972223835881584
 30
0.0
 10
30.72246697884341
 20
-10.35915997413816
 30
0.0
  0
SPLINE
  5
28F9
102
{ACAD_REACTORS
330
2D1C
102
}
330
A
100
AcDbEntity
  8
0
370
    13
100
AcDbSpline
210
0.0
220
0.0
230
1.0
 70
     8
 71
     3
 72
     8
 73
     4
 74
     0
 42
0.0000000001
 43
0.0000000001
 40
1.0
 40
1.0
 40
1.0
 40
1.0
 40
2.0
 40
2.0
 40
2.0
 40
2.0
 10
30.72246697884341
 20
-10.35915997413816
 30
0.0
 10
30.67325879604339
 20
-10.74609611239472
 30
0.0
 10
30.80952760995113
 20
-11.13219108513331
 30
0.0
 10
31.0892151446692
 20
-11.4030463819129
 30
0.0
  0
SPLINE
  5
28FA
102
{ACAD_REACTORS
330
2D1C
102
}
330
A
100
AcDbEntity
  8
0
370
    13
100
AcDbSpline
210
0.0
220
0.0
230
1.0
 70
     8
 71
     3
 72
     8
 73
     4
 74
     0
 42
0.0000000001
 43
0.0000000001
 40
0.0
 40
0.0
 40
0.0
 40
0.0
 40
1.0
 40
1.0
 40
1.0
 40
1.0
 10
31.97201835575672
 20
-4.484459996782
 30
0.0
 10
31.63386981754121
 20
-4.67792806591028
 30
0.0
 10
31.40549337941803
 20
-5.018600100679642
 30
0.0
 10
31.35712636213595
 20
-5.405536238936218
 30
0.0
  0
SPLINE
  5
28FB
102
{ACAD_REACTORS
330
2D1C
102
}
330
A
100
AcDbEntity
  8
0
370
    13
100
AcDbSpline
210
0.0
220
0.0
230
1.0
 70
     8
 71
     3
 72
     8
 73
     4
 74
     0
 42
0.0000000001
 43
0.0000000001
 40
1.0
 40
1.0
 40
1.0
 40
1.0
 40
2.0
 40
2.0
 40
2.0
 40
2.0
 10
31.35712636213595
 20
-5.405536238936218
 30
0.0
 10
31.30791817933595
 20
-5.79247237719275
 30
0.0
 10
31.4441869932437
 20
-6.178567349931375
 30
0.0
 10
31.72429511072074
 20
-6.450263812228913
 30
0.0
  0
SPLINE
  5
28FC
102
{ACAD_REACTORS
330
2D1C
102
}
330
A
100
AcDbEntity
  8
0
370
    13
100
AcDbSpline
210
0.0
220
0.0
230
1.0
 70
     8
 71
     3
 72
     8
 73
     4
 74
     0
 42
0.0000000001
 43
0.0000000001
 40
0.0
 40
0.0
 40
0.0
 40
0.0
 40
1.0
 40
1.0
 40
1.0
 40
1.0
 10
33.17909087401361
 20
5.422787473621886
 30
0.0
 10
32.84052175303911
 20
5.229319404493605
 30
0.0
 10
32.61214531491593
 20
4.888647369724243
 30
0.0
 10
32.56377829763388
 20
4.501711231467711
 30
0.0
  0
SPLINE
  5
28FD
102
{ACAD_REACTORS
330
2D1C
102
}
330
A
100
AcDbEntity
  8
0
370
    13
100
AcDbSpline
210
0.0
220
0.0
230
1.0
 70
     8
 71
     3
 72
     8
 73
     4
 74
     0
 42
0.0000000001
 43
0.0000000001
 40
1.0
 40
1.0
 40
1.0
 40
1.0
 40
2.0
 40
2.0
 40
2.0
 40
2.0
 10
32.56377829763388
 20
4.501711231467711
 30
0.0
 10
32.51499069759283
 20
4.114775093211134
 30
0.0
 10
32.65083892874161
 20
3.72868012047251
 30
0.0
 10
32.93094704621864
 20
3.456983658174957
 30
0.0
  0
SPLINE
  5
28FE
102
{ACAD_REACTORS
330
2D1C
102
}
330
A
100
AcDbEntity
  8
0
370
    13
100
AcDbSpline
210
0.0
220
0.0
230
1.0
 70
     8
 71
     3
 72
     8
 73
     4
 74
     0
 42
0.0000000001
 43
0.0000000001
 40
0.0
 40
0.0
 40
0.0
 40
0.0
 40
1.0
 40
1.0
 40
1.0
 40
1.0
 10
33.81375025730616
 20
10.37641120882384
 30
0.0
 10
33.47602230184961
 20
10.18294313969559
 30
0.0
 10
33.24806644648541
 20
9.841429939408278
 30
0.0
 10
33.19885826368541
 20
9.455334966669655
 30
0.0
  0
SPLINE
  5
28FF
102
{ACAD_REACTORS
330
2D1C
102
}
330
A
100
AcDbEntity
  8
0
370
    13
100
AcDbSpline
210
0.0
220
0.0
230
1.0
 70
     8
 71
     3
 72
     8
 73
     4
 74
     0
 42
0.0000000001
 43
0.0000000001
 40
1.0
 40
1.0
 40
1.0
 40
1.0
 40
2.0
 40
2.0
 40
2.0
 40
2.0
 10
33.19885826368541
 20
9.455334966669655
 30
0.0
 10
33.1496500808854
 20
9.068398828413064
 30
0.0
 10
33.28676006031108
 20
8.682303855674469
 30
0.0
 10
33.56644759502914
 20
8.410607393376915
 30
0.0
  0
SPLINE
  5
2900
102
{ACAD_REACTORS
330
2D1C
102
}
330
A
100
AcDbEntity
  8
0
370
    13
100
AcDbSpline
210
0.0
220
0.0
230
1.0
 70
     8
 71
     3
 72
     8
 73
     4
 74
     0
 42
0.0000000001
 43
0.0000000001
 40
0.0
 40
0.0
 40
0.0
 40
0.0
 40
1.0
 40
1.0
 40
1.0
 40
1.0
 10
34.44925080611666
 20
15.39312235787198
 30
0.0
 10
34.11110226790116
 20
15.1996542887437
 30
0.0
 10
33.88272582977798
 20
14.85898225397432
 30
0.0
 10
33.8343588124959
 20
14.47204611571776
 30
0.0
  0
SPLINE
  5
2901
102
{ACAD_REACTORS
330
2D1C
102
}
330
A
100
AcDbEntity
  8
0
370
    13
100
AcDbSpline
210
0.0
220
0.0
230
1.0
 70
     8
 71
     3
 72
     8
 73
     4
 74
     0
 42
0.0000000001
 43
0.0000000001
 40
1.0
 40
1.0
 40
1.0
 40
1.0
 40
2.0
 40
2.0
 40
2.0
 40
2.0
 10
33.8343588124959
 20
14.47204611571776
 30
0.0
 10
33.7851506296959
 20
14.08510997746117
 30
0.0
 10
33.92141944360364
 20
13.6973326736867
 30
0.0
 10
34.20152756108068
 20
13.42731854242505
 30
0.0
  0
SPLINE
  5
2902
102
{ACAD_REACTORS
330
2D1C
102
}
330
A
100
AcDbEntity
  8
0
370
    13
100
AcDbSpline
210
0.0
220
0.0
230
1.0
 70
     8
 71
     3
 72
     8
 73
     4
 74
     0
 42
0.0000000001
 43
0.0000000001
 40
0.0
 40
0.0
 40
0.0
 40
0.0
 40
1.0
 40
1.0
 40
1.0
 40
1.0
 10
35.08433077216821
 20
20.34674609307391
 30
0.0
 10
34.74576165119369
 20
20.15327802394563
 30
0.0
 10
34.51738521307052
 20
19.81260598917628
 30
0.0
 10
34.46943877854743
 20
19.42566985091969
 30
0.0
  0
SPLINE
  5
2903
102
{ACAD_REACTORS
330
2D1C
102
}
330
A
100
AcDbEntity
  8
0
370
    13
100
AcDbSpline
210
0.0
220
0.0
230
1.0
 70
     8
 71
     3
 72
     8
 73
     4
 74
     0
 42
0.0000000001
 43
0.0000000001
 40
1.0
 40
1.0
 40
1.0
 40
1.0
 40
2.0
 40
2.0
 40
2.0
 40
2.0
 10
34.46943877854743
 20
19.42566985091969
 30
0.0
 10
34.42023059574741
 20
19.03873371266316
 30
0.0
 10
34.55607882689619
 20
18.65095640888863
 30
0.0
 10
34.83618694437322
 20
18.38094227762698
 30
0.0
  0
SPLINE
  5
2904
102
{ACAD_REACTORS
330
2D1C
102
}
330
A
100
AcDbEntity
  8
0
370
    13
100
AcDbSpline
210
0.0
220
0.0
230
1.0
 70
     8
 71
     3
 72
     8
 73
     4
 74
     0
 42
0.0000000001
 43
0.0000000001
 40
0.0
 40
0.0
 40
0.0
 40
0.0
 40
1.0
 40
1.0
 40
1.0
 40
1.0
 10
35.71899015546074
 20
25.30036982827587
 30
0.0
 10
35.38042103448626
 20
25.10690175914758
 30
0.0
 10
35.15246517912206
 20
24.76622972437821
 30
0.0
 10
35.10409816184
 20
24.37929358612165
 30
0.0
  0
SPLINE
  5
2905
102
{ACAD_REACTORS
330
2D1C
102
}
330
A
100
AcDbEntity
  8
0
370
    13
100
AcDbSpline
210
0.0
220
0.0
230
1.0
 70
     8
 71
     3
 72
     8
 73
     4
 74
     0
 42
0.0000000001
 43
0.0000000001
 40
1.0
 40
1.0
 40
1.0
 40
1.0
 40
2.0
 40
2.0
 40
2.0
 40
2.0
 10
35.10409816184
 20
24.37929358612165
 30
0.0
 10
35.05488997903998
 20
23.99235744786512
 30
0.0
 10
35.19115879294773
 20
23.60458014409059
 30
0.0
 10
35.47084632766579
 20
23.33456601282894
 30
0.0
  0
SPLINE
  5
2906
102
{ACAD_REACTORS
330
2D1C
102
}
330
A
100
AcDbEntity
  8
0
370
    13
100
AcDbSpline
210
0.0
220
0.0
230
1.0
 70
     8
 71
     3
 72
     8
 73
     4
 74
     0
 42
0.0000000001
 43
0.0000000001
 40
0.0
 40
0.0
 40
0.0
 40
0.0
 40
1.0
 40
1.0
 40
1.0
 40
1.0
 10
43.4593952516279
 20
-10.10765148427136
 30
0.0
 10
44.07260491421275
 20
-10.33056034652786
 30
0.0
 10
44.75647248030533
 20
-10.24139680162528
 30
0.0
 10
45.29061258420298
 20
-9.86623698062001
 30
0.0
  0
SPLINE
  5
2907
102
{ACAD_REACTORS
330
2D1C
102
}
330
A
100
AcDbEntity
  8
0
370
    13
100
AcDbSpline
210
0.0
220
0.0
230
1.0
 70
     8
 71
     3
 72
     8
 73
     4
 74
     0
 42
0.0000000001
 43
0.0000000001
 40
1.0
 40
1.0
 40
1.0
 40
1.0
 40
2.0
 40
2.0
 40
2.0
 40
2.0
 10
45.29061258420298
 20
-9.86623698062001
 30
0.0
 10
45.82517327085958
 20
-9.492759490650639
 30
0.0
 10
46.14397500216229
 20
-8.881232159101674
 30
0.0
 10
46.14397500216229
 20
-8.228487717173205
 30
0.0
  0
SPLINE
  5
2908
102
{ACAD_REACTORS
330
2D1C
102
}
330
A
100
AcDbEntity
  8
0
370
    13
100
AcDbSpline
210
0.0
220
0.0
230
1.0
 70
     8
 71
     3
 72
     8
 73
     4
 74
     0
 42
0.0000000001
 43
0.0000000001
 40
0.0
 40
0.0
 40
0.0
 40
0.0
 40
1.0
 40
1.0
 40
1.0
 40
1.0
 10
46.14397500216229
 20
10.18967246383914
 30
0.0
 10
46.14397500216229
 20
10.84241690576761
 30
0.0
 10
45.82517327085958
 20
11.45394423731658
 30
0.0
 10
45.29145374972093
 20
11.82826289280391
 30
0.0
  0
SPLINE
  5
2909
102
{ACAD_REACTORS
330
2D1C
102
}
330
A
100
AcDbEntity
  8
0
370
    13
100
AcDbSpline
210
0.0
220
0.0
230
1.0
 70
     8
 71
     3
 72
     8
 73
     4
 74
     0
 42
0.0000000001
 43
0.0000000001
 40
1.0
 40
1.0
 40
1.0
 40
1.0
 40
2.0
 40
2.0
 40
2.0
 40
2.0
 10
45.29145374972093
 20
11.82826289280391
 30
0.0
 10
44.75647248030533
 20
12.20258154829122
 30
0.0
 10
44.07344607973071
 20
12.29258625871178
 30
0.0
 10
43.46023641714584
 20
12.06967739645528
 30
0.0
  0
SPLINE
  5
290B
102
{ACAD_REACTORS
330
2D1C
102
}
330
A
100
AcDbEntity
  8
0
370
    13
100
AcDbSpline
210
0.0
220
0.0
230
1.0
 70
     8
 71
     3
 72
     8
 73
     4
 74
     0
 42
0.0000000001
 43
0.0000000001
 40
0.0
 40
0.0
 40
0.0
 40
0.0
 40
1.0
 40
1.0
 40
1.0
 40
1.0
 10
38.84139655808762
 20
50.10297629052151
 30
0.0
 10
38.50282743711311
 20
49.91034938691119
 30
0.0
 10
38.27445099898996
 20
49.56967735214181
 30
0.0
 10
38.22608398170789
 20
49.18274121388526
 30
0.0
  0
SPLINE
  5
290C
102
{ACAD_REACTORS
330
2D1C
102
}
330
A
100
AcDbEntity
  8
0
370
    13
100
AcDbSpline
210
0.0
220
0.0
230
1.0
 70
     8
 71
     3
 72
     8
 73
     4
 74
     0
 42
0.0000000001
 43
0.0000000001
 40
1.0
 40
1.0
 40
1.0
 40
1.0
 40
2.0
 40
2.0
 40
2.0
 40
2.0
 10
38.22608398170789
 20
49.18274121388526
 30
0.0
 10
38.17729638166682
 20
48.79496391011073
 30
0.0
 10
38.3131446128156
 20
48.40971010289007
 30
0.0
 10
38.59325273029264
 20
48.13801364059255
 30
0.0
  0
SPLINE
  5
290D
102
{ACAD_REACTORS
330
2D1C
102
}
330
A
100
AcDbEntity
  8
0
370
    13
100
AcDbSpline
210
0.0
220
0.0
230
1.0
 70
     8
 71
     3
 72
     8
 73
     4
 74
     0
 42
0.0000000001
 43
0.0000000001
 40
0.0
 40
0.0
 40
0.0
 40
0.0
 40
1.0
 40
1.0
 40
1.0
 40
1.0
 10
39.41254794477503
 20
55.05660002572345
 30
0.0
 10
39.07397882380052
 20
54.86229079107724
 30
0.0
 10
38.84560238567738
 20
54.52161875630786
 30
0.0
 10
38.79765595115426
 20
54.1346826180513
 30
0.0
  0
SPLINE
  5
290E
102
{ACAD_REACTORS
330
2D1C
102
}
330
A
100
AcDbEntity
  8
0
370
    13
100
AcDbSpline
210
0.0
220
0.0
230
1.0
 70
     8
 71
     3
 72
     8
 73
     4
 74
     0
 42
0.0000000001
 43
0.0000000001
 40
1.0
 40
1.0
 40
1.0
 40
1.0
 40
2.0
 40
2.0
 40
2.0
 40
2.0
 10
38.79765595115426
 20
54.1346826180513
 30
0.0
 10
38.74844776835423
 20
53.74774647979471
 30
0.0
 10
38.88471658226198
 20
53.36165150705614
 30
0.0
 10
39.16440411698005
 20
53.09079621027652
 30
0.0
  0
SPLINE
  5
290F
102
{ACAD_REACTORS
330
2D1C
102
}
330
A
100
AcDbEntity
  8
0
370
    13
100
AcDbSpline
210
0.0
220
0.0
230
1.0
 70
     8
 71
     3
 72
     8
 73
     4
 74
     0
 42
0.0000000001
 43
0.0000000001
 40
0.0
 40
0.0
 40
0.0
 40
0.0
 40
1.0
 40
1.0
 40
1.0
 40
1.0
 10
37.56072205701018
 20
40.16039986836374
 30
0.0
 10
37.22299410155364
 20
39.96693179923549
 30
0.0
 10
36.99461766343047
 20
39.62625976446611
 30
0.0
 10
36.94583006338944
 20
39.23932362620955
 30
0.0
  0
SPLINE
  5
2910
102
{ACAD_REACTORS
330
2D1C
102
}
330
A
100
AcDbEntity
  8
0
370
    13
100
AcDbSpline
210
0.0
220
0.0
230
1.0
 70
     8
 71
     3
 72
     8
 73
     4
 74
     0
 42
0.0000000001
 43
0.0000000001
 40
1.0
 40
1.0
 40
1.0
 40
1.0
 40
2.0
 40
2.0
 40
2.0
 40
2.0
 10
36.94583006338944
 20
39.23932362620955
 30
0.0
 10
36.89662188058942
 20
38.85238748795299
 30
0.0
 10
37.03331127725614
 20
38.46629251521436
 30
0.0
 10
37.31341939473317
 20
38.19459605291681
 30
0.0
  0
SPLINE
  5
2911
102
{ACAD_REACTORS
330
2D1C
102
}
330
A
100
AcDbEntity
  8
0
370
    13
100
AcDbSpline
210
0.0
220
0.0
230
1.0
 70
     8
 71
     3
 72
     8
 73
     4
 74
     0
 42
0.0000000001
 43
0.0000000001
 40
0.0
 40
0.0
 40
0.0
 40
0.0
 40
1.0
 40
1.0
 40
1.0
 40
1.0
 10
36.2909827076661
 20
30.25315239795986
 30
0.0
 10
35.95241358669159
 20
30.05968432883157
 30
0.0
 10
35.72445773132741
 20
29.7190122940622
 30
0.0
 10
35.67609071404536
 20
29.3329173213236
 30
0.0
  0
SPLINE
  5
2912
102
{ACAD_REACTORS
330
2D1C
102
}
330
A
100
AcDbEntity
  8
0
370
    13
100
AcDbSpline
210
0.0
220
0.0
230
1.0
 70
     8
 71
     3
 72
     8
 73
     4
 74
     0
 42
0.0000000001
 43
0.0000000001
 40
1.0
 40
1.0
 40
1.0
 40
1.0
 40
2.0
 40
2.0
 40
2.0
 40
2.0
 10
35.67609071404536
 20
29.3329173213236
 30
0.0
 10
35.62688253124534
 20
28.9451400175491
 30
0.0
 10
35.76315134515306
 20
28.55988621032842
 30
0.0
 10
36.04283887987115
 20
28.28734858251293
 30
0.0
  0
SPLINE
  5
2913
102
{ACAD_REACTORS
330
2D1C
102
}
330
A
100
AcDbEntity
  8
0
370
    13
100
AcDbSpline
210
0.0
220
0.0
230
1.0
 70
     8
 71
     3
 72
     8
 73
     4
 74
     0
 42
0.0000000001
 43
0.0000000001
 40
0.0
 40
0.0
 40
0.0
 40
0.0
 40
1.0
 40
1.0
 40
1.0
 40
1.0
 10
36.92564209095867
 20
35.20677613316179
 30
0.0
 10
36.58749355274314
 20
35.01330806403351
 30
0.0
 10
36.35911711461999
 20
34.67263602926413
 30
0.0
 10
36.31075009733791
 20
34.28569989100759
 30
0.0
  0
SPLINE
  5
2914
102
{ACAD_REACTORS
330
2D1C
102
}
330
A
100
AcDbEntity
  8
0
370
    13
100
AcDbSpline
210
0.0
220
0.0
230
1.0
 70
     8
 71
     3
 72
     8
 73
     4
 74
     0
 42
0.0000000001
 43
0.0000000001
 40
1.0
 40
1.0
 40
1.0
 40
1.0
 40
2.0
 40
2.0
 40
2.0
 40
2.0
 10
36.31075009733791
 20
34.28569989100759
 30
0.0
 10
36.26154191453788
 20
33.89876375275103
 30
0.0
 10
36.39781072844563
 20
33.51266878001241
 30
0.0
 10
36.67791884592267
 20
33.24097231771486
 30
0.0
  0
SPLINE
  5
2915
102
{ACAD_REACTORS
330
2D1C
102
}
330
A
100
AcDbEntity
  8
0
370
    13
100
AcDbSpline
210
0.0
220
0.0
230
1.0
 70
     8
 71
     3
 72
     8
 73
     4
 74
     0
 42
0.0000000001
 43
0.0000000001
 40
0.0
 40
0.0
 40
0.0
 40
0.0
 40
1.0
 40
1.0
 40
1.0
 40
1.0
 10
38.20673717479505
 20
45.14935255531957
 30
0.0
 10
37.86816805382057
 20
44.95588448619129
 30
0.0
 10
37.64021219845636
 20
44.61521245142194
 30
0.0
 10
37.59184518117431
 20
44.22827631316535
 30
0.0
  0
SPLINE
  5
2916
102
{ACAD_REACTORS
330
2D1C
102
}
330
A
100
AcDbEntity
  8
0
370
    13
100
AcDbSpline
210
0.0
220
0.0
230
1.0
 70
     8
 71
     3
 72
     8
 73
     4
 74
     0
 42
0.0000000001
 43
0.0000000001
 40
1.0
 40
1.0
 40
1.0
 40
1.0
 40
2.0
 40
2.0
 40
2.0
 40
2.0
 10
37.59184518117431
 20
44.22827631316535
 30
0.0
 10
37.54263699837429
 20
43.84134017490879
 30
0.0
 10
37.67890581228204
 20
43.45524520217017
 30
0.0
 10
37.9585933470001
 20
43.18354873987266
 30
0.0
  0
SPLINE
  5
2917
102
{ACAD_REACTORS
330
2D1C
102
}
330
A
100
AcDbEntity
  8
0
370
    13
100
AcDbSpline
210
0.0
220
0.0
230
1.0
 70
    24
 71
     3
 72
     8
 73
     4
 74
     0
 42
0.0000000001
 43
0.0000000001
 40
0.0
 40
0.0
 40
0.0
 40
0.0
 40
1.0
 40
1.0
 40
1.0
 40
1.0
 10
43.61501087244849
 20
64.094082350568
 30
0.0
 10
43.61501087244849
 20
64.094082350568
 30
0.0
 10
41.59537246385279
 20
48.16240744061304
 30
0.0
 10
41.59537246385279
 20
48.16240744061304
 30
0.0
  0
SPLINE
  5
2918
102
{ACAD_REACTORS
330
2D1C
102
}
330
A
100
AcDbEntity
  8
0
370
    13
100
AcDbSpline
210
0.0
220
0.0
230
1.0
 70
     8
 71
     3
 72
     8
 73
     4
 74
     0
 42
0.0000000001
 43
0.0000000001
 40
1.0
 40
1.0
 40
1.0
 40
1.0
 40
2.0
 40
2.0
 40
2.0
 40
2.0
 10
41.59537246385279
 20
48.16240744061304
 30
0.0
 10
41.51924698447841
 20
47.55845059872562
 30
0.0
 10
41.65972162597591
 20
46.98393454996643
 30
0.0
 10
41.90618312273499
 20
46.40353034258161
 30
0.0
  0
SPLINE
  5
2919
102
{ACAD_REACTORS
330
2D1C
102
}
330
A
100
AcDbEntity
  8
0
370
    13
100
AcDbSpline
210
0.0
220
0.0
230
1.0
 70
    24
 71
     3
 72
     8
 73
     4
 74
     0
 42
0.0000000001
 43
0.0000000001
 40
2.0
 40
2.0
 40
2.0
 40
2.0
 40
3.0
 40
3.0
 40
3.0
 40
3.0
 10
41.90618312273499
 20
46.40353034258161
 30
0.0
 10
41.90618312273499
 20
46.40353034258161
 30
0.0
 10
41.79430810884775
 20
46.20249178379178
 30
0.0
 10
41.79430810884775
 20
46.20249178379178
 30
0.0
  0
SPLINE
  5
291A
102
{ACAD_REACTORS
330
2D1C
102
}
330
A
100
AcDbEntity
  8
0
370
    13
100
AcDbSpline
210
0.0
220
0.0
230
1.0
 70
     8
 71
     3
 72
     8
 73
     4
 74
     0
 42
0.0000000001
 43
0.0000000001
 40
3.0
 40
3.0
 40
3.0
 40
3.0
 40
4.0
 40
4.0
 40
4.0
 40
4.0
 10
41.79430810884775
 20
46.20249178379178
 30
0.0
 10
41.02169758061156
 20
45.12916458288876
 30
0.0
 10
41.27404723599625
 20
43.70591252651901
 30
0.0
 10
42.29396042650948
 20
42.86474700856993
 30
0.0
  0
SPLINE
  5
291B
102
{ACAD_REACTORS
330
2D1C
102
}
330
A
100
AcDbEntity
  8
0
370
    13
100
AcDbSpline
210
0.0
220
0.0
230
1.0
 70
     8
 71
     3
 72
     8
 73
     4
 74
     0
 42
0.0000000001
 43
0.0000000001
 40
4.0
 40
4.0
 40
4.0
 40
4.0
 40
5.0
 40
5.0
 40
5.0
 40
5.0
 10
42.29396042650948
 20
42.86474700856993
 30
0.0
 10
43.31345303426374
 20
42.02358149062089
 30
0.0
 10
44.811568821731
 20
42.11779202863119
 30
0.0
 10
45.71666291904416
 20
43.08092654668282
 30
0.0
  0
SPLINE
  5
291C
102
{ACAD_REACTORS
330
2D1C
102
}
330
A
100
AcDbEntity
  8
0
370
    13
100
AcDbSpline
210
0.0
220
0.0
230
1.0
 70
     8
 71
     3
 72
     8
 73
     4
 74
     0
 42
0.0000000001
 43
0.0000000001
 40
5.0
 40
5.0
 40
5.0
 40
5.0
 40
6.0
 40
6.0
 40
6.0
 40
6.0
 10
45.71666291904416
 20
43.08092654668282
 30
0.0
 10
46.62217759911632
 20
44.04406106473451
 30
0.0
 10
46.62554226118812
 20
45.54470034875561
 30
0.0
 10
45.72381282594673
 20
46.51119952887907
 30
0.0
  0
SPLINE
  5
291D
102
{ACAD_REACTORS
330
2D1C
102
}
330
A
100
AcDbEntity
  8
0
370
    13
100
AcDbSpline
210
0.0
220
0.0
230
1.0
 70
    24
 71
     3
 72
     8
 73
     4
 74
     0
 42
0.0000000001
 43
0.0000000001
 40
6.0
 40
6.0
 40
6.0
 40
6.0
 40
7.0
 40
7.0
 40
7.0
 40
7.0
 10
45.72381282594673
 20
46.51119952887907
 30
0.0
 10
45.72381282594673
 20
46.51119952887907
 30
0.0
 10
45.60310557412105
 20
46.64158018416115
 30
0.0
 10
45.60310557412105
 20
46.64158018416115
 30
0.0
  0
SPLINE
  5
291E
102
{ACAD_REACTORS
330
2D1C
102
}
330
A
100
AcDbEntity
  8
0
370
    13
100
AcDbSpline
210
0.0
220
0.0
230
1.0
 70
     8
 71
     3
 72
     8
 73
     4
 74
     0
 42
0.0000000001
 43
0.0000000001
 40
7.0
 40
7.0
 40
7.0
 40
7.0
 40
8.0
 40
8.0
 40
8.0
 40
8.0
 10
45.60310557412105
 20
46.64158018416115
 30
0.0
 10
46.04597921932121
 20
47.18076728116652
 30
0.0
 10
46.46193556794703
 20
47.91174011626425
 30
0.0
 10
46.46193556794703
 20
48.60990749616195
 30
0.0
  0
SPLINE
  5
291F
102
{ACAD_REACTORS
330
2D1C
102
}
330
A
100
AcDbEntity
  8
0
370
    13
100
AcDbSpline
210
0.0
220
0.0
230
1.0
 70
    24
 71
     3
 72
     8
 73
     4
 74
     0
 42
0.0000000001
 43
0.0000000001
 40
8.0
 40
8.0
 40
8.0
 40
8.0
 40
9.0
 40
9.0
 40
9.0
 40
9.0
 10
46.46193556794703
 20
48.60990749616195
 30
0.0
 10
46.46193556794703
 20
48.60990749616195
 30
0.0
 10
46.46193556794703
 20
63.91575526076282
 30
0.0
 10
46.46193556794703
 20
63.91575526076282
 30
0.0
  0
SPLINE
  5
2920
102
{ACAD_REACTORS
330
2D1C
102
}
330
A
100
AcDbEntity
  8
0
370
    13
100
AcDbSpline
210
0.0
220
0.0
230
1.0
 70
     8
 71
     3
 72
     8
 73
     4
 74
     0
 42
0.0000000001
 43
0.0000000001
 40
9.0
 40
9.0
 40
9.0
 40
9.0
 40
10.0
 40
10.0
 40
10.0
 40
10.0
 10
46.46193556794703
 20
63.91575526076282
 30
0.0
 10
46.46193556794703
 20
64.67028073036313
 30
0.0
 10
45.87522261917757
 20
65.29358437916336
 30
0.0
 10
45.12237948061316
 20
65.3406896481685
 30
0.0
  0
SPLINE
  5
2921
102
{ACAD_REACTORS
330
2D1C
102
}
330
A
100
AcDbEntity
  8
0
370
    13
100
AcDbSpline
210
0.0
220
0.0
230
1.0
 70
     8
 71
     3
 72
     8
 73
     4
 74
     0
 42
0.0000000001
 43
0.0000000001
 40
10.0
 40
10.0
 40
10.0
 40
10.0
 40
11.0
 40
11.0
 40
11.0
 40
11.0
 10
45.12237948061316
 20
65.3406896481685
 30
0.0
 10
44.36953634204877
 20
65.38863608269162
 30
0.0
 10
43.70880082769978
 20
64.84187849602472
 30
0.0
 10
43.61501087244849
 20
64.094082350568
 30
0.0
  0
SPLINE
  5
2922
102
{ACAD_REACTORS
330
2D1C
102
}
330
A
100
AcDbEntity
  8
0
370
    13
100
AcDbSpline
210
0.0
220
0.0
230
1.0
 70
     8
 71
     3
 72
     8
 73
     4
 74
     0
 42
0.0000000001
 43
0.0000000001
 40
0.0
 40
0.0
 40
0.0
 40
0.0
 40
1.0
 40
1.0
 40
1.0
 40
1.0
 10
46.14397500216229
 20
36.86218987248555
 30
0.0
 10
46.14397500216229
 20
37.51493431441399
 30
0.0
 10
45.82517327085958
 20
38.12646164596296
 30
0.0
 10
45.29145374972093
 20
38.49993913593232
 30
0.0
  0
SPLINE
  5
2923
102
{ACAD_REACTORS
330
2D1C
102
}
330
A
100
AcDbEntity
  8
0
370
    13
100
AcDbSpline
210
0.0
220
0.0
230
1.0
 70
     8
 71
     3
 72
     8
 73
     4
 74
     0
 42
0.0000000001
 43
0.0000000001
 40
1.0
 40
1.0
 40
1.0
 40
1.0
 40
2.0
 40
2.0
 40
2.0
 40
2.0
 10
45.29145374972093
 20
38.49993913593232
 30
0.0
 10
44.75647248030533
 20
38.8750989569376
 30
0.0
 10
44.07260491421275
 20
38.96426250184019
 30
0.0
 10
43.4593952516279
 20
38.74135363958369
 30
0.0
  0
SPLINE
  5
2926
102
{ACAD_REACTORS
330
2D1C
102
}
330
A
100
AcDbEntity
  8
0
370
    13
100
AcDbSpline
210
0.0
220
0.0
230
1.0
 70
     8
 71
     3
 72
     8
 73
     4
 74
     0
 42
0.0000000001
 43
0.0000000001
 40
0.0
 40
0.0
 40
0.0
 40
0.0
 40
1.0
 40
1.0
 40
1.0
 40
1.0
 10
40.04720732806757
 20
60.00938259540745
 30
0.0
 10
39.70905878985206
 20
59.81591452627917
 30
0.0
 10
39.48068235172888
 20
59.47524249150982
 30
0.0
 10
39.43231533444683
 20
59.08830635325325
 30
0.0
  0
SPLINE
  5
2927
102
{ACAD_REACTORS
330
2D1C
102
}
330
A
100
AcDbEntity
  8
0
370
    13
100
AcDbSpline
210
0.0
220
0.0
230
1.0
 70
     8
 71
     3
 72
     8
 73
     4
 74
     0
 42
0.0000000001
 43
0.0000000001
 40
1.0
 40
1.0
 40
1.0
 40
1.0
 40
2.0
 40
2.0
 40
2.0
 40
2.0
 10
39.43231533444683
 20
59.08830635325325
 30
0.0
 10
39.38310715164678
 20
58.70137021499669
 30
0.0
 10
39.51937596555456
 20
58.31359291122216
 30
0.0
 10
39.79948408303156
 20
58.04357877996051
 30
0.0
  0
SPLINE
  5
2CD1
102
{ACAD_REACTORS
330
2D1C
102
}
330
A
100
AcDbEntity
  8
0
370
    13
100
AcDbSpline
210
0.0
220
0.0
230
1.0
 70
     8
 71
     3
 72
     8
 73
     4
 74
     0
 42
0.0000000001
 43
0.0000000001
 40
0.0
 40
0.0
 40
0.0
 40
0.0
 40
1.0
 40
1.0
 40
1.0
 40
1.0
 10
12.42062313452796
 20
-26.73454743619586
 30
0.0
 10
12.4626814104254
 20
-26.69333032581636
 30
0.0
 10
12.51861891736902
 20
-26.67061885683175
 30
0.0
 10
12.5783416691434
 20
-26.67061885683175
 30
0.0
  0
LINE
  5
2CD2
102
{ACAD_REACTORS
330
2D1C
102
}
330
A
100
AcDbEntity
  8
0
370
    13
100
AcDbLine
 10
12.10350373426115
 20
-27.05250800198061
 30
0.0
 11
12.42062313452796
 21
-26.73454743619586
 31
0.0
  0
SPLINE
  5
2CD3
102
{ACAD_REACTORS
330
2D1C
102
}
330
A
100
AcDbEntity
  8
0
370
    13
100
AcDbSpline
210
0.0
220
0.0
230
1.0
 70
     8
 71
     3
 72
     8
 73
     4
 74
     0
 42
0.0000000001
 43
0.0000000001
 40
0.0
 40
0.0
 40
0.0
 40
0.0
 40
1.0
 40
1.0
 40
1.0
 40
1.0
 10
11.47215860535946
 20
-42.58972119093033
 30
0.0
 10
11.43010032946201
 20
-42.63093830130983
 30
0.0
 10
11.3741628225184
 20
-42.65364977029444
 30
0.0
 10
11.31444007074402
 20
-42.65364977029444
 30
0.0
  0
LINE
  5
2CD4
102
{ACAD_REACTORS
330
2D1C
102
}
330
A
100
AcDbEntity
  8
0
370
    13
100
AcDbLine
 10
11.78927800562626
 20
-42.27176062514558
 30
0.0
 11
11.47215860535946
 21
-42.58972119093033
 31
0.0
  0
SPLINE
  5
2CD5
102
{ACAD_REACTORS
330
2D1C
102
}
330
A
100
AcDbEntity
  8
0
370
    13
100
AcDbSpline
210
0.0
220
0.0
230
1.0
 70
     8
 71
     3
 72
     8
 73
     4
 74
     0
 42
0.0000000001
 43
0.0000000001
 40
0.0
 40
0.0
 40
0.0
 40
0.0
 40
1.0
 40
1.0
 40
1.0
 40
1.0
 10
11.78927800562626
 20
-42.27176062514558
 30
0.0
 10
11.876338636734
 20
-42.18427941127891
 30
0.0
 10
12.01681327823147
 20
-42.18427941127891
 30
0.0
 10
12.10345332658024
 20
-42.27176062514558
 30
0.0
  0
LINE
  5
2CD6
102
{ACAD_REACTORS
330
2D1C
102
}
330
A
100
AcDbEntity
  8
0
370
    13
100
AcDbLine
 10
12.10350373426115
 20
-42.27176062514558
 30
0.0
 11
12.42062313452796
 21
-42.58972119093033
 31
0.0
  0
SPLINE
  5
2CD7
102
{ACAD_REACTORS
330
2D1C
102
}
330
A
100
AcDbEntity
  8
0
370
    13
100
AcDbSpline
210
0.0
220
0.0
230
1.0
 70
     8
 71
     3
 72
     8
 73
     4
 74
     0
 42
0.0000000001
 43
0.0000000001
 40
0.0
 40
0.0
 40
0.0
 40
0.0
 40
1.0
 40
1.0
 40
1.0
 40
1.0
 10
12.42062313452796
 20
-42.58972119093033
 30
0.0
 10
12.4626814104254
 20
-42.63093830130983
 30
0.0
 10
12.51861891736902
 20
-42.65364977029444
 30
0.0
 10
12.5783416691434
 20
-42.65364977029444
 30
0.0
  0
SPLINE
  5
2CFC
102
{ACAD_REACTORS
330
2D1C
102
}
330
A
100
AcDbEntity
  8
0
370
    13
100
AcDbSpline
210
0.0
220
0.0
230
1.0
 70
    24
 71
     3
 72
     8
 73
     4
 74
     0
 42
0.0000000001
 43
0.0000000001
 40
4.0
 40
4.0
 40
4.0
 40
4.0
 40
5.0
 40
5.0
 40
5.0
 40
5.0
 10
46.40599806100342
 20
74.00721797959978
 30
0.0
 10
46.40599806100342
 20
74.00721797959978
 30
0.0
 10
46.21547407118796
 20
73.1811934409738
 30
0.0
 10
46.21547407118796
 20
73.1811934409738
 30
0.0
  0
SPLINE
  5
2CFD
102
{ACAD_REACTORS
330
2D1C
102
}
330
A
100
AcDbEntity
  8
0
370
    13
100
AcDbSpline
210
0.0
220
0.0
230
1.0
 70
     8
 71
     3
 72
     8
 73
     4
 74
     0
 42
0.0000000001
 43
0.0000000001
 40
0.0
 40
0.0
 40
0.0
 40
0.0
 40
1.0
 40
1.0
 40
1.0
 40
1.0
 10
46.90649154418309
 20
72.67901762675823
 30
0.0
 10
46.90649154418309
 20
72.80182779237879
 30
0.0
 10
46.80639284754718
 20
72.90108532349677
 30
0.0
 10
46.68400326468559
 20
72.90108532349677
 30
0.0
  0
SPLINE
  5
2CFE
102
{ACAD_REACTORS
330
2D1C
102
}
330
A
100
AcDbEntity
  8
0
370
    13
100
AcDbSpline
210
0.0
220
0.0
230
1.0
 70
     8
 71
     3
 72
     8
 73
     4
 74
     0
 42
0.0000000001
 43
0.0000000001
 40
0.0
 40
0.0
 40
0.0
 40
0.0
 40
1.0
 40
1.0
 40
1.0
 40
1.0
 10
46.28613197469571
 20
70.38684159034708
 30
0.0
 10
46.26804691605982
 20
70.3203895144291
 30
0.0
 10
46.28276731262394
 20
70.24889044540343
 30
0.0
 10
46.32398442300342
 20
70.19421468673674
 30
0.0
  0
SPLINE
  5
2CFF
102
{ACAD_REACTORS
330
2D1C
102
}
330
A
100
AcDbEntity
  8
0
370
    13
100
AcDbSpline
210
0.0
220
0.0
230
1.0
 70
     8
 71
     3
 72
     8
 73
     4
 74
     0
 42
0.0000000001
 43
0.0000000001
 40
1.0
 40
1.0
 40
1.0
 40
1.0
 40
2.0
 40
2.0
 40
2.0
 40
2.0
 10
46.32398442300342
 20
70.19421468673674
 30
0.0
 10
46.36646328165986
 20
70.13953892807004
 30
0.0
 10
46.4316536093009
 20
70.10673347287002
 30
0.0
 10
46.50062918177273
 20
70.10673347287002
 30
0.0
  0
SPLINE
  5
2D00
102
{ACAD_REACTORS
330
2D1C
102
}
330
A
100
AcDbEntity
  8
0
370
    13
100
AcDbSpline
210
0.0
220
0.0
230
1.0
 70
     8
 71
     3
 72
     8
 73
     4
 74
     0
 42
0.0000000001
 43
0.0000000001
 40
0.0
 40
0.0
 40
0.0
 40
0.0
 40
1.0
 40
1.0
 40
1.0
 40
1.0
 10
46.68400326468559
 20
71.15987270134226
 30
0.0
 10
46.80639284754718
 20
71.15987270134226
 30
0.0
 10
46.90649154418309
 20
71.25913023246027
 30
0.0
 10
46.90649154418309
 20
71.3827815635988
 30
0.0
  0
SPLINE
  5
2D01
102
{ACAD_REACTORS
330
2D1C
102
}
330
A
100
AcDbEntity
  8
0
370
    13
100
AcDbSpline
210
0.0
220
0.0
230
1.0
 70
     8
 71
     3
 72
     8
 73
     4
 74
     0
 42
0.0000000001
 43
0.0000000001
 40
0.0
 40
0.0
 40
0.0
 40
0.0
 40
1.0
 40
1.0
 40
1.0
 40
1.0
 10
46.68400326468559
 20
71.15987270134226
 30
0.0
 10
46.58306340253171
 20
71.15987270134226
 30
0.0
 10
46.49432044038809
 20
71.0934206254243
 30
0.0
 10
46.46950605760861
 20
70.9958454253422
 30
0.0
  0
SPLINE
  5
2D02
102
{ACAD_REACTORS
330
2D1C
102
}
330
A
100
AcDbEntity
  8
0
370
    13
100
AcDbSpline
210
0.0
220
0.0
230
1.0
 70
     8
 71
     3
 72
     8
 73
     4
 74
     0
 42
0.0000000001
 43
0.0000000001
 40
0.0
 40
0.0
 40
0.0
 40
0.0
 40
1.0
 40
1.0
 40
1.0
 40
1.0
 10
46.90649154418309
 20
69.88466577613147
 30
0.0
 10
46.90649154418309
 20
70.00747594175206
 30
0.0
 10
46.80639284754718
 20
70.10673347287003
 30
0.0
 10
46.68400326468559
 20
70.10673347287003
 30
0.0
  0
SPLINE
  5
2D03
102
{ACAD_REACTORS
330
2D1C
102
}
330
A
100
AcDbEntity
  8
0
370
    13
100
AcDbSpline
210
0.0
220
0.0
230
1.0
 70
     8
 71
     3
 72
     8
 73
     4
 74
     0
 42
0.0000000001
 43
0.0000000001
 40
1.0
 40
1.0
 40
1.0
 40
1.0
 40
2.0
 40
2.0
 40
2.0
 40
2.0
 10
46.25332651949565
 20
72.98772537184551
 30
0.0
 10
46.29580537815209
 20
72.93389077869682
 30
0.0
 10
46.36099570579315
 20
72.90108532349676
 30
0.0
 10
46.42997127826497
 20
72.90108532349676
 30
0.0
  0
SPLINE
  5
2D04
102
{ACAD_REACTORS
330
2D1C
102
}
330
A
100
AcDbEntity
  8
0
370
    13
100
AcDbSpline
210
0.0
220
0.0
230
1.0
 70
     8
 71
     3
 72
     8
 73
     4
 74
     0
 42
0.0000000001
 43
0.0000000001
 40
0.0
 40
0.0
 40
0.0
 40
0.0
 40
1.0
 40
1.0
 40
1.0
 40
1.0
 10
46.21547407118796
 20
73.1811934409738
 30
0.0
 10
46.19738901255206
 20
73.11474136505585
 30
0.0
 10
46.21210940911615
 20
73.04324229603018
 30
0.0
 10
46.25332651949565
 20
72.98772537184551
 30
0.0
  0
SPLINE
  5
2D05
102
{ACAD_REACTORS
330
2D1C
102
}
330
A
100
AcDbEntity
  8
0
370
    13
100
AcDbSpline
210
0.0
220
0.0
230
1.0
 70
     8
 71
     3
 72
     8
 73
     4
 74
     0
 42
0.0000000001
 43
0.0000000001
 40
3.0
 40
3.0
 40
3.0
 40
3.0
 40
4.0
 40
4.0
 40
4.0
 40
4.0
 10
46.62049526808042
 20
74.17124525559984
 30
0.0
 10
46.51955540592653
 20
74.17124525559984
 30
0.0
 10
46.43165360930087
 20
74.10395201416392
 30
0.0
 10
46.40599806100342
 20
74.00721797959978
 30
0.0
  0
LINE
  5
2D06
102
{ACAD_REACTORS
330
2D1C
102
}
330
A
100
AcDbEntity
  8
0
370
    13
100
AcDbLine
 10
46.90649154418309
 20
69.88466577613369
 30
0.0
 11
46.90649154418309
 21
67.34434591192314
 31
0.0
  0
LINE
  5
2D07
102
{ACAD_REACTORS
330
2D1C
102
}
330
A
100
AcDbEntity
  8
0
370
    13
100
AcDbLine
 10
46.46950605760861
 20
70.9958454253422
 30
0.0
 11
46.28613197469571
 21
70.38684159034708
 31
0.0
  0
LINE
  5
2D08
102
{ACAD_REACTORS
330
2D1C
102
}
330
A
100
AcDbEntity
  8
0
370
    13
100
AcDbLine
 10
46.90649154418309
 20
72.67901762676046
 30
0.0
 11
46.90649154418309
 21
71.3827815635957
 31
0.0
  0
LINE
  5
2D09
102
{ACAD_REACTORS
330
2D1C
102
}
330
A
100
AcDbEntity
  8
0
370
    13
100
AcDbLine
 10
46.42997127826497
 20
72.90108532349676
 30
0.0
 11
46.68400326468559
 21
72.90108532349676
 31
0.0
  0
LINE
  5
2D0A
102
{ACAD_REACTORS
330
2D1C
102
}
330
A
100
AcDbEntity
  8
0
370
    13
100
AcDbLine
 10
46.50062918177255
 20
70.10673347287003
 30
0.0
 11
46.68400326468701
 21
70.10673347287003
 31
0.0
  0
SPLINE
  5
2D0C
102
{ACAD_REACTORS
330
2D1C
102
}
330
A
100
AcDbEntity
  8
0
370
    13
100
AcDbSpline
210
0.0
220
0.0
230
1.0
 70
    24
 71
     3
 72
     8
 73
     4
 74
     0
 42
0.0000000001
 43
0.0000000001
 40
4.0
 40
4.0
 40
4.0
 40
4.0
 40
5.0
 40
5.0
 40
5.0
 40
5.0
 10
43.40556065847747
 20
74.00721797959978
 30
0.0
 10
43.40556065847747
 20
74.00721797959978
 30
0.0
 10
43.59608464829294
 20
73.1811934409738
 30
0.0
 10
43.59608464829294
 20
73.1811934409738
 30
0.0
  0
SPLINE
  5
2D0D
102
{ACAD_REACTORS
330
2D1C
102
}
330
A
100
AcDbEntity
  8
0
370
    13
100
AcDbSpline
210
0.0
220
0.0
230
1.0
 70
     8
 71
     3
 72
     8
 73
     4
 74
     0
 42
0.0000000001
 43
0.0000000001
 40
0.0
 40
0.0
 40
0.0
 40
0.0
 40
1.0
 40
1.0
 40
1.0
 40
1.0
 10
42.9050671752978
 20
72.67901762675823
 30
0.0
 10
42.9050671752978
 20
72.80182779237879
 30
0.0
 10
43.00516587193371
 20
72.90108532349677
 30
0.0
 10
43.1275554547953
 20
72.90108532349677
 30
0.0
  0
SPLINE
  5
2D0E
102
{ACAD_REACTORS
330
2D1C
102
}
330
A
100
AcDbEntity
  8
0
370
    13
100
AcDbSpline
210
0.0
220
0.0
230
1.0
 70
     8
 71
     3
 72
     8
 73
     4
 74
     0
 42
0.0000000001
 43
0.0000000001
 40
0.0
 40
0.0
 40
0.0
 40
0.0
 40
1.0
 40
1.0
 40
1.0
 40
1.0
 10
43.52542674478518
 20
70.38684159034708
 30
0.0
 10
43.54351180342108
 20
70.3203895144291
 30
0.0
 10
43.52879140685696
 20
70.24889044540343
 30
0.0
 10
43.48757429647747
 20
70.19421468673674
 30
0.0
  0
SPLINE
  5
2D0F
102
{ACAD_REACTORS
330
2D1C
102
}
330
A
100
AcDbEntity
  8
0
370
    13
100
AcDbSpline
210
0.0
220
0.0
230
1.0
 70
     8
 71
     3
 72
     8
 73
     4
 74
     0
 42
0.0000000001
 43
0.0000000001
 40
1.0
 40
1.0
 40
1.0
 40
1.0
 40
2.0
 40
2.0
 40
2.0
 40
2.0
 10
43.48757429647747
 20
70.19421468673674
 30
0.0
 10
43.44509543782104
 20
70.13953892807004
 30
0.0
 10
43.37990511017999
 20
70.10673347287002
 30
0.0
 10
43.31092953770816
 20
70.10673347287002
 30
0.0
  0
SPLINE
  5
2D10
102
{ACAD_REACTORS
330
2D1C
102
}
330
A
100
AcDbEntity
  8
0
370
    13
100
AcDbSpline
210
0.0
220
0.0
230
1.0
 70
     8
 71
     3
 72
     8
 73
     4
 74
     0
 42
0.0000000001
 43
0.0000000001
 40
0.0
 40
0.0
 40
0.0
 40
0.0
 40
1.0
 40
1.0
 40
1.0
 40
1.0
 10
43.1275554547953
 20
71.15987270134226
 30
0.0
 10
43.00516587193371
 20
71.15987270134226
 30
0.0
 10
42.9050671752978
 20
71.25913023246027
 30
0.0
 10
42.9050671752978
 20
71.3827815635988
 30
0.0
  0
SPLINE
  5
2D11
102
{ACAD_REACTORS
330
2D1C
102
}
330
A
100
AcDbEntity
  8
0
370
    13
100
AcDbSpline
210
0.0
220
0.0
230
1.0
 70
     8
 71
     3
 72
     8
 73
     4
 74
     0
 42
0.0000000001
 43
0.0000000001
 40
0.0
 40
0.0
 40
0.0
 40
0.0
 40
1.0
 40
1.0
 40
1.0
 40
1.0
 10
43.1275554547953
 20
71.15987270134226
 30
0.0
 10
43.22849531694918
 20
71.15987270134226
 30
0.0
 10
43.3172382790928
 20
71.0934206254243
 30
0.0
 10
43.34205266187228
 20
70.9958454253422
 30
0.0
  0
SPLINE
  5
2D12
102
{ACAD_REACTORS
330
2D1C
102
}
330
A
100
AcDbEntity
  8
0
370
    13
100
AcDbSpline
210
0.0
220
0.0
230
1.0
 70
     8
 71
     3
 72
     8
 73
     4
 74
     0
 42
0.0000000001
 43
0.0000000001
 40
0.0
 40
0.0
 40
0.0
 40
0.0
 40
1.0
 40
1.0
 40
1.0
 40
1.0
 10
42.9050671752978
 20
69.88466577613147
 30
0.0
 10
42.9050671752978
 20
70.00747594175206
 30
0.0
 10
43.00516587193371
 20
70.10673347287003
 30
0.0
 10
43.1275554547953
 20
70.10673347287003
 30
0.0
  0
SPLINE
  5
2D13
102
{ACAD_REACTORS
330
2D1C
102
}
330
A
100
AcDbEntity
  8
0
370
    13
100
AcDbSpline
210
0.0
220
0.0
230
1.0
 70
     8
 71
     3
 72
     8
 73
     4
 74
     0
 42
0.0000000001
 43
0.0000000001
 40
1.0
 40
1.0
 40
1.0
 40
1.0
 40
2.0
 40
2.0
 40
2.0
 40
2.0
 10
43.55823219998524
 20
72.98772537184551
 30
0.0
 10
43.5157533413288
 20
72.93389077869682
 30
0.0
 10
43.45056301368774
 20
72.90108532349676
 30
0.0
 10
43.38158744121592
 20
72.90108532349676
 30
0.0
  0
SPLINE
  5
2D14
102
{ACAD_REACTORS
330
2D1C
102
}
330
A
100
AcDbEntity
  8
0
370
    13
100
AcDbSpline
210
0.0
220
0.0
230
1.0
 70
     8
 71
     3
 72
     8
 73
     4
 74
     0
 42
0.0000000001
 43
0.0000000001
 40
0.0
 40
0.0
 40
0.0
 40
0.0
 40
1.0
 40
1.0
 40
1.0
 40
1.0
 10
43.59608464829294
 20
73.1811934409738
 30
0.0
 10
43.61416970692884
 20
73.11474136505585
 30
0.0
 10
43.59944931036475
 20
73.04324229603018
 30
0.0
 10
43.55823219998524
 20
72.98772537184551
 30
0.0
  0
SPLINE
  5
2D15
102
{ACAD_REACTORS
330
2D1C
102
}
330
A
100
AcDbEntity
  8
0
370
    13
100
AcDbSpline
210
0.0
220
0.0
230
1.0
 70
     8
 71
     3
 72
     8
 73
     4
 74
     0
 42
0.0000000001
 43
0.0000000001
 40
3.0
 40
3.0
 40
3.0
 40
3.0
 40
4.0
 40
4.0
 40
4.0
 40
4.0
 10
43.19106345140048
 20
74.17124525559984
 30
0.0
 10
43.29200331355436
 20
74.17124525559984
 30
0.0
 10
43.37990511018002
 20
74.10395201416392
 30
0.0
 10
43.40556065847747
 20
74.00721797959978
 30
0.0
  0
LINE
  5
2D16
102
{ACAD_REACTORS
330
2D1C
102
}
330
A
100
AcDbEntity
  8
0
370
    13
100
AcDbLine
 10
42.9050671752978
 20
69.88466577613369
 30
0.0
 11
42.9050671752978
 21
67.34434591192314
 31
0.0
  0
LINE
  5
2D17
102
{ACAD_REACTORS
330
2D1C
102
}
330
A
100
AcDbEntity
  8
0
370
    13
100
AcDbLine
 10
43.34205266187228
 20
70.9958454253422
 30
0.0
 11
43.52542674478518
 21
70.38684159034708
 31
0.0
  0
LINE
  5
2D18
102
{ACAD_REACTORS
330
2D1C
102
}
330
A
100
AcDbEntity
  8
0
370
    13
100
AcDbLine
 10
42.9050671752978
 20
72.67901762676046
 30
0.0
 11
42.9050671752978
 21
71.3827815635957
 31
0.0
  0
LINE
  5
2D19
102
{ACAD_REACTORS
330
2D1C
102
}
330
A
100
AcDbEntity
  8
0
370
    13
100
AcDbLine
 10
43.38158744121592
 20
72.90108532349676
 30
0.0
 11
43.1275554547953
 21
72.90108532349676
 31
0.0
  0
LINE
  5
2D1A
102
{ACAD_REACTORS
330
2D1C
102
}
330
A
100
AcDbEntity
  8
0
370
    13
100
AcDbLine
 10
43.31092953770834
 20
70.10673347287003
 30
0.0
 11
43.12755545479388
 21
70.10673347287003
 31
0.0
  0
ARC
  5
2D1B
102
{ACAD_REACTORS
330
2D1C
102
}
330
A
100
AcDbEntity
  8
0
370
    13
100
AcDbCircle
 10
41.47691912877609
 20
65.82023942828886
 30
0.0
 40
0.7175764367618384
100
AcDbArc
 50
281.4482490309833
 51
78.48321535576271
  0
SPLINE
  5
2D5E
102
{ACAD_REACTORS
330
2D9A
102
}
330
A
100
AcDbEntity
  8
0
 62
   253
370
    13
100
AcDbSpline
210
0.0
220
0.0
230
1.0
 70
     8
 71
     3
 72
     8
 73
     4
 74
     0
 42
0.0000000001
 43
0.0000000001
 40
1.0
 40
1.0
 40
1.0
 40
1.0
 40
2.0
 40
2.0
 40
2.0
 40
2.0
 10
-1.71867611338159
 20
88.47183649586021
 30
0.0
 10
-1.792741511757952
 20
88.49801775296063
 30
0.0
 10
-1.874730185309488
 20
88.46908057406018
 30
0.0
 10
-1.921236365685331
 20
88.3998380388339
 30
0.0
  0
SPLINE
  5
2D5F
102
{ACAD_REACTORS
330
2D9A
102
}
330
A
100
AcDbEntity
  8
0
 62
   253
370
    13
100
AcDbSpline
210
0.0
220
0.0
230
1.0
 70
     8
 71
     3
 72
     8
 73
     4
 74
     0
 42
0.0000000001
 43
0.0000000001
 40
0.0
 40
0.0
 40
0.0
 40
0.0
 40
1.0
 40
1.0
 40
1.0
 40
1.0
 10
-1.593970651929296
 20
88.28408932323176
 30
0.0
 10
-1.593970651929296
 20
88.36952289903328
 30
0.0
 10
-1.64392173455522
 20
88.44531074853469
 30
0.0
 10
-1.71867611338159
 20
88.47183649586021
 30
0.0
  0
SPLINE
  5
2D60
102
{ACAD_REACTORS
330
2D9A
102
}
330
A
100
AcDbEntity
  8
0
 62
   253
370
    13
100
AcDbSpline
210
0.0
220
0.0
230
1.0
 70
     8
 71
     3
 72
     8
 73
     4
 74
     0
 42
0.0000000001
 43
0.0000000001
 40
0.0
 40
0.0
 40
0.0
 40
0.0
 40
1.0
 40
1.0
 40
1.0
 40
1.0
 10
-1.615673536104708
 20
86.59849865227569
 30
0.0
 10
-1.600171475979422
 20
86.63225869432633
 30
0.0
 10
-1.593970651929303
 20
86.67394201155209
 30
0.0
 10
-1.593970651929303
 20
86.71700328967792
 30
0.0
  0
SPLINE
  5
2D61
102
{ACAD_REACTORS
330
2D9A
102
}
330
A
100
AcDbEntity
  8
0
 62
   253
370
    13
100
AcDbSpline
210
0.0
220
0.0
230
1.0
 70
     8
 71
     3
 72
     8
 73
     4
 74
     0
 42
0.0000000001
 43
0.0000000001
 40
0.0
 40
0.0
 40
0.0
 40
0.0
 40
1.0
 40
1.0
 40
1.0
 40
1.0
 10
-7.128550606881283
 20
79.03693821338631
 30
0.0
 10
-7.498877598763122
 20
78.51641348340173
 30
0.0
 10
-7.699370909716797
 20
77.88151799871504
 30
0.0
 10
-7.699370909716797
 20
77.22870902232791
 30
0.0
  0
SPLINE
  5
2D62
102
{ACAD_REACTORS
330
2D9A
102
}
330
A
100
AcDbEntity
  8
0
 62
   253
370
    13
100
AcDbSpline
210
0.0
220
0.0
230
1.0
 70
     8
 71
     3
 72
     8
 73
     4
 74
     0
 42
0.0000000001
 43
0.0000000001
 40
0.0
 40
0.0
 40
0.0
 40
0.0
 40
1.0
 40
1.0
 40
1.0
 40
1.0
 10
-10.74018612584784
 20
72.88606524589785
 30
0.0
 10
-10.64441784329607
 20
72.88606524589785
 30
0.0
 10
-10.56656305244462
 20
72.97425474349946
 30
0.0
 10
-10.56656305244462
 20
73.08242467415148
 30
0.0
  0
SPLINE
  5
2D63
102
{ACAD_REACTORS
330
2D9A
102
}
330
A
100
AcDbEntity
  8
0
 62
   253
370
    13
100
AcDbSpline
210
0.0
220
0.0
230
1.0
 70
     8
 71
     3
 72
     8
 73
     4
 74
     0
 42
0.0000000001
 43
0.0000000001
 40
0.0
 40
0.0
 40
0.0
 40
0.0
 40
1.0
 40
1.0
 40
1.0
 40
1.0
 10
-10.56656305244462
 20
76.0353948829058
 30
0.0
 10
-10.56656305244462
 20
76.31339849448598
 30
0.0
 10
-10.77739107014853
 20
76.53835061141514
 30
0.0
 10
-11.03782568025332
 20
76.53835061141514
 30
0.0
  0
SPLINE
  5
2D66
102
{ACAD_REACTORS
330
2D9A
102
}
330
A
100
AcDbEntity
  8
0
 62
   253
370
    13
100
AcDbSpline
210
0.0
220
0.0
230
1.0
 70
     8
 71
     3
 72
     8
 73
     4
 74
     0
 42
0.0000000001
 43
0.0000000001
 40
0.0
 40
0.0
 40
0.0
 40
0.0
 40
1.0
 40
1.0
 40
1.0
 40
1.0
 10
-8.948836955814812
 20
79.22606334691472
 30
0.0
 10
-8.36699296577909
 20
79.51267921412001
 30
0.0
 10
-7.863692747044822
 20
79.94708138785303
 30
0.0
 10
-7.485442479987845
 20
80.48965349223808
 30
0.0
  0
SPLINE
  5
2D67
102
{ACAD_REACTORS
330
2D9A
102
}
330
A
100
AcDbEntity
  8
0
 62
   253
370
    13
100
AcDbSpline
210
0.0
220
0.0
230
1.0
 70
     8
 71
     3
 72
     8
 73
     4
 74
     0
 42
0.0000000001
 43
0.0000000001
 40
0.0
 40
0.0
 40
0.0
 40
0.0
 40
1.0
 40
1.0
 40
1.0
 40
1.0
 10
-7.872993983119989
 20
65.9921268630708
 30
0.0
 10
-7.777225700568223
 20
65.9921268630708
 30
0.0
 10
-7.699370909716797
 20
66.07962738022242
 30
0.0
 10
-7.699370909716797
 20
66.18848629132442
 30
0.0
  0
SPLINE
  5
2D68
102
{ACAD_REACTORS
330
2D9A
102
}
330
A
100
AcDbEntity
  8
0
 62
   253
370
    13
100
AcDbSpline
210
0.0
220
0.0
230
1.0
 70
     8
 71
     3
 72
     8
 73
     4
 74
     0
 42
0.0000000001
 43
0.0000000001
 40
0.0
 40
0.0
 40
0.0
 40
0.0
 40
1.0
 40
1.0
 40
1.0
 40
1.0
 10
-10.56656305244462
 20
68.5913056107437
 30
0.0
 10
-10.56656305244462
 20
68.70016452184571
 30
0.0
 10
-10.64407335307105
 20
68.78766503899739
 30
0.0
 10
-10.74018612584784
 20
68.78766503899739
 30
0.0
  0
SPLINE
  5
2D69
102
{ACAD_REACTORS
330
2D9A
102
}
330
A
100
AcDbEntity
  8
0
 62
   253
370
    13
100
AcDbSpline
210
0.0
220
0.0
230
1.0
 70
     8
 71
     3
 72
     8
 73
     4
 74
     0
 42
0.0000000001
 43
0.0000000001
 40
0.0
 40
0.0
 40
0.0
 40
0.0
 40
1.0
 40
1.0
 40
1.0
 40
1.0
 10
-10.56656305244464
 20
66.18848629132442
 30
0.0
 10
-10.56656305244464
 20
66.08031636067245
 30
0.0
 10
-10.48905275181821
 20
65.9921268630708
 30
0.0
 10
-10.39293997904145
 20
65.9921268630708
 30
0.0
  0
SPLINE
  5
2D6E
102
{ACAD_REACTORS
330
2D9A
102
}
330
A
100
AcDbEntity
  8
0
 62
   253
370
    13
100
AcDbSpline
210
0.0
220
0.0
230
1.0
 70
     8
 71
     3
 72
     8
 73
     4
 74
     0
 42
0.0000000001
 43
0.0000000001
 40
0.0
 40
0.0
 40
0.0
 40
0.0
 40
1.0
 40
1.0
 40
1.0
 40
1.0
 10
-12.69757958433388
 20
77.39406433033095
 30
0.0
 10
-12.75373149100993
 20
77.36168224918033
 30
0.0
 10
-12.78990296463558
 20
77.29243971395404
 30
0.0
 10
-12.78990296463558
 20
77.21630737422767
 30
0.0
  0
SPLINE
  5
2D6F
102
{ACAD_REACTORS
330
2D9A
102
}
330
A
100
AcDbEntity
  8
0
 62
   253
370
    13
100
AcDbSpline
210
0.0
220
0.0
230
1.0
 70
     8
 71
     3
 72
     8
 73
     4
 74
     0
 42
0.0000000001
 43
0.0000000001
 40
0.0
 40
0.0
 40
0.0
 40
0.0
 40
1.0
 40
1.0
 40
1.0
 40
1.0
 10
-12.69792407455891
 20
72.98665639159965
 30
0.0
 10
-12.69792407455891
 20
72.93119346537368
 30
0.0
 10
-12.66106362048321
 20
72.8860652458978
 30
0.0
 10
-12.61696887168241
 20
72.8860652458978
 30
0.0
  0
SPLINE
  5
2D70
102
{ACAD_REACTORS
330
2D9A
102
}
330
A
100
AcDbEntity
  8
0
 62
   253
370
    13
100
AcDbSpline
210
0.0
220
0.0
230
1.0
 70
     8
 71
     3
 72
     8
 73
     4
 74
     0
 42
0.0000000001
 43
0.0000000001
 40
0.0
 40
0.0
 40
0.0
 40
0.0
 40
1.0
 40
1.0
 40
1.0
 40
1.0
 10
-12.6979240745589
 20
73.49167906145892
 30
0.0
 10
-12.6979240745589
 20
73.54748647791002
 30
0.0
 10
-12.73444003840956
 20
73.59330367783583
 30
0.0
 10
-12.77887927743537
 20
73.59330367783583
 30
0.0
  0
SPLINE
  5
2D71
102
{ACAD_REACTORS
330
2D9A
102
}
330
A
100
AcDbEntity
  8
0
 62
   253
370
    13
100
AcDbSpline
210
0.0
220
0.0
230
1.0
 70
     8
 71
     3
 72
     8
 73
     4
 74
     0
 42
0.0000000001
 43
0.0000000001
 40
0.0
 40
0.0
 40
0.0
 40
0.0
 40
1.0
 40
1.0
 40
1.0
 40
1.0
 10
-13.40206209447188
 20
73.59330367783583
 30
0.0
 10
-13.43857805832252
 20
73.59330367783583
 30
0.0
 10
-13.4750940221732
 20
73.58262448086067
 30
0.0
 10
-13.50850957399883
 20
73.56436649893534
 30
0.0
  0
SPLINE
  5
2D72
102
{ACAD_REACTORS
330
2D9A
102
}
330
A
100
AcDbEntity
  8
0
 62
   253
370
    13
100
AcDbSpline
210
0.0
220
0.0
230
1.0
 70
     8
 71
     3
 72
     8
 73
     4
 74
     0
 42
0.0000000001
 43
0.0000000001
 40
0.0
 40
0.0
 40
0.0
 40
0.0
 40
1.0
 40
1.0
 40
1.0
 40
1.0
 10
-12.78990296463557
 20
76.73367656899372
 30
0.0
 10
-12.78990296463557
 20
76.62516214811673
 30
0.0
 10
-12.71204817378412
 20
76.5383506114152
 30
0.0
 10
-12.61627989123236
 20
76.5383506114152
 30
0.0
  0
SPLINE
  5
2D74
102
{ACAD_REACTORS
330
2D9A
102
}
330
A
100
AcDbEntity
  8
0
 62
   253
370
    13
100
AcDbSpline
210
0.0
220
0.0
230
1.0
 70
     8
 71
     3
 72
     8
 73
     4
 74
     0
 42
0.0000000001
 43
0.0000000001
 40
0.0
 40
0.0
 40
0.0
 40
0.0
 40
1.0
 40
1.0
 40
1.0
 40
1.0
 10
-12.61662438145739
 20
68.78766503899739
 30
0.0
 10
-12.66175260093322
 20
68.78766503899739
 30
0.0
 10
-12.6979240745589
 20
68.74253681952151
 30
0.0
 10
-12.6979240745589
 20
68.68672940307046
 30
0.0
  0
SPLINE
  5
2D75
102
{ACAD_REACTORS
330
2D9A
102
}
330
A
100
AcDbEntity
  8
0
 62
   253
370
    13
100
AcDbSpline
210
0.0
220
0.0
230
1.0
 70
     8
 71
     3
 72
     8
 73
     4
 74
     0
 42
0.0000000001
 43
0.0000000001
 40
0.0
 40
0.0
 40
0.0
 40
0.0
 40
1.0
 40
1.0
 40
1.0
 40
1.0
 10
-12.7788792774354
 20
68.08903886268446
 30
0.0
 10
-12.73375105795957
 20
68.08903886268446
 30
0.0
 10
-12.69792407455891
 20
68.13416708216023
 30
0.0
 10
-12.69792407455891
 20
68.18997449861128
 30
0.0
  0
SPLINE
  5
2D76
102
{ACAD_REACTORS
330
2D9A
102
}
330
A
100
AcDbEntity
  8
0
 62
   253
370
    13
100
AcDbSpline
210
0.0
220
0.0
230
1.0
 70
     8
 71
     3
 72
     8
 73
     4
 74
     0
 42
0.0000000001
 43
0.0000000001
 40
0.0
 40
0.0
 40
0.0
 40
0.0
 40
1.0
 40
1.0
 40
1.0
 40
1.0
 10
-13.50919855444883
 20
68.11797604158501
 30
0.0
 10
-13.47612749284822
 20
68.0990290792097
 30
0.0
 10
-13.43961152899755
 20
68.08903886268446
 30
0.0
 10
-13.40275107492188
 20
68.08903886268446
 30
0.0
  0
SPLINE
  5
2D79
102
{ACAD_REACTORS
330
2D9A
102
}
330
A
100
AcDbEntity
  8
0
 62
   253
370
    13
100
AcDbSpline
210
0.0
220
0.0
230
1.0
 70
     8
 71
     3
 72
    11
 73
     7
 74
     0
 42
0.0000000001
 43
0.0000000001
 40
0.0
 40
0.0
 40
0.0
 40
0.0
 40
1.0
 40
1.0
 40
1.0
 40
2.0
 40
2.0
 40
2.0
 40
2.0
 10
-13.50850957399883
 20
73.56436649893534
 30
0.0
 10
-14.52578920844258
 20
73.07277894785132
 30
0.0
 10
-15.17722022392957
 20
72.0096821134817
 30
0.0
 10
-15.17722022392957
 20
70.84048228981017
 30
0.0
 10
-15.17722022392957
 20
69.67231593681363
 30
0.0
 10
-14.5264781888926
 20
68.60887461221905
 30
0.0
 10
-13.50919855444883
 20
68.11797604158501
 30
0.0
  0
LINE
  5
2D7E
102
{ACAD_REACTORS
330
2D9A
102
}
330
A
100
AcDbEntity
  8
0
 62
   253
370
    13
100
AcDbLine
 10
-7.699370909716797
 20
66.18848629132386
 30
0.0
 11
-7.699370909716797
 21
77.22870902232791
 31
0.0
  0
LINE
  5
2D83
102
{ACAD_REACTORS
330
2D9A
102
}
330
A
100
AcDbEntity
  8
0
 62
   253
370
    13
100
AcDbLine
 10
-10.56656305244462
 20
68.59130561074433
 30
0.0
 11
-10.56656305244462
 21
66.18848629131988
 31
0.0
  0
LINE
  5
2D85
102
{ACAD_REACTORS
330
2D9A
102
}
330
A
100
AcDbEntity
  8
0
 62
   253
370
    13
100
AcDbLine
 10
-10.39293997904206
 20
65.9921268630708
 30
0.0
 11
-7.872993983119535
 21
65.9921268630708
 31
0.0
  0
LINE
  5
2D86
102
{ACAD_REACTORS
330
2D9A
102
}
330
A
100
AcDbEntity
  8
0
 62
   253
370
    13
100
AcDbLine
 10
-12.69792407455891
 20
68.18997449861128
 30
0.0
 11
-12.6979240745589
 21
68.68672940307046
 31
0.0
  0
LINE
  5
2D87
102
{ACAD_REACTORS
330
2D9A
102
}
330
A
100
AcDbEntity
  8
0
 62
   253
370
    13
100
AcDbLine
 10
-13.40275107492188
 20
68.08903886268446
 30
0.0
 11
-12.77887927743518
 21
68.08903886268446
 31
0.0
  0
LINE
  5
2D89
102
{ACAD_REACTORS
330
2D9A
102
}
330
A
100
AcDbEntity
  8
0
 62
   253
370
    13
100
AcDbLine
 10
-12.61662438145755
 20
68.78766503899739
 30
0.0
 11
-10.74018612584718
 21
68.78766503899739
 31
0.0
  0
LINE
  5
2D8C
102
{ACAD_REACTORS
330
2D9A
102
}
330
A
100
AcDbEntity
  8
0
 62
   253
370
    13
100
AcDbLine
 10
-7.12855060688129
 20
79.03693821338631
 30
0.0
 11
-1.615673536104708
 21
86.59849865227569
 31
0.0
  0
LINE
  5
2D8D
102
{ACAD_REACTORS
330
2D9A
102
}
330
A
100
AcDbEntity
  8
0
 62
   253
370
    13
100
AcDbLine
 10
-1.921236365685338
 20
88.3998380388339
 30
0.0
 11
-7.485442479987845
 21
80.48965349223808
 31
0.0
  0
LINE
  5
2D8E
102
{ACAD_REACTORS
330
2D9A
102
}
330
A
100
AcDbEntity
  8
0
 62
   253
370
    13
100
AcDbLine
 10
-12.78990296463557
 20
77.21630737422767
 30
0.0
 11
-12.78990296463557
 21
76.73367656899298
 31
0.0
  0
LINE
  5
2D8F
102
{ACAD_REACTORS
330
2D9A
102
}
330
A
100
AcDbEntity
  8
0
 62
   253
370
    13
100
AcDbLine
 10
-10.56656305244462
 20
76.0353948829058
 30
0.0
 11
-10.56656305244462
 21
73.08242467415119
 31
0.0
  0
LINE
  5
2D93
102
{ACAD_REACTORS
330
2D9A
102
}
330
A
100
AcDbEntity
  8
0
 62
   253
370
    13
100
AcDbLine
 10
-12.69792407455891
 20
72.98665639159965
 30
0.0
 11
-12.6979240745589
 21
73.49167906145892
 31
0.0
  0
LINE
  5
2D94
102
{ACAD_REACTORS
330
2D9A
102
}
330
A
100
AcDbEntity
  8
0
 62
   253
370
    13
100
AcDbLine
 10
-12.77887927743394
 20
73.59330367783583
 30
0.0
 11
-13.40206209447188
 21
73.59330367783583
 31
0.0
  0
LINE
  5
2D96
102
{ACAD_REACTORS
330
2D9A
102
}
330
A
100
AcDbEntity
  8
0
 62
   253
370
    13
100
AcDbLine
 10
-12.61627989123285
 20
76.53835061141514
 30
0.0
 11
-11.03782568025332
 21
76.53835061141514
 31
0.0
  0
LINE
  5
2D97
102
{ACAD_REACTORS
330
2D9A
102
}
330
A
100
AcDbEntity
  8
0
 62
   253
370
    13
100
AcDbLine
 10
-10.74018612584741
 20
72.88606524589785
 30
0.0
 11
-12.61696887168241
 21
72.8860652458978
 31
0.0
  0
LINE
  5
2D98
102
{ACAD_REACTORS
330
2D9A
102
}
330
A
100
AcDbEntity
  8
0
 62
   253
370
    13
100
AcDbLine
 10
-12.69757958433388
 20
77.39406433033095
 30
0.0
 11
-8.948836955814819
 21
79.22606334691479
 31
0.0
  0
LINE
  5
2D99
102
{ACAD_REACTORS
330
2D9A
102
}
330
A
100
AcDbEntity
  8
0
 62
   253
370
    13
100
AcDbLine
 10
-1.593970651929296
 20
88.28408932323181
 30
0.0
 11
-1.593970651929296
 21
86.71700328967792
 31
0.0
  0
SPLINE
  5
2DB8
102
{ACAD_REACTORS
330
2E1E
102
}
330
A
100
AcDbEntity
  8
0
 62
   253
370
    13
100
AcDbSpline
210
0.0
220
0.0
230
1.0
 70
     8
 71
     3
 72
     8
 73
     4
 74
     0
 42
0.0000000001
 43
0.0000000001
 40
0.0
 40
0.0
 40
0.0
 40
0.0
 40
1.0
 40
1.0
 40
1.0
 40
1.0
 10
49.42139890364165
 20
74.62114948945583
 30
0.0
 10
49.42139890364165
 20
74.69831529985731
 30
0.0
 10
49.38074905709089
 20
74.76790232530857
 30
0.0
 10
49.3156404045647
 20
74.79959542600915
 30
0.0
  0
SPLINE
  5
2DB9
102
{ACAD_REACTORS
330
2E1E
102
}
330
A
100
AcDbEntity
  8
0
 62
   253
370
    13
100
AcDbSpline
210
0.0
220
0.0
230
1.0
 70
     8
 71
     3
 72
     8
 73
     4
 74
     0
 42
0.0000000001
 43
0.0000000001
 40
0.0
 40
0.0
 40
0.0
 40
0.0
 40
1.0
 40
1.0
 40
1.0
 40
1.0
 10
49.23675214303823
 20
74.17124525559763
 30
0.0
 10
49.33906573986512
 20
74.17124525559763
 30
0.0
 10
49.42139890364165
 20
74.25943475319917
 30
0.0
 10
49.42139890364165
 20
74.36726019362618
 30
0.0
  0
SPLINE
  5
2DBD
102
{ACAD_REACTORS
330
2E1E
102
}
330
A
100
AcDbEntity
  8
0
 62
   253
370
    13
100
AcDbSpline
210
0.0
220
0.0
230
1.0
 70
     8
 71
     3
 72
     8
 73
     4
 74
     0
 42
0.0000000001
 43
0.0000000001
 40
0.0
 40
0.0
 40
0.0
 40
0.0
 40
1.0
 40
1.0
 40
1.0
 40
1.0
 10
46.89042922051998
 20
72.21350730688659
 30
0.0
 10
46.86355898296948
 20
72.31788784506346
 30
0.0
 10
46.76055640569262
 20
72.37989608556461
 30
0.0
 10
46.66168771111577
 20
72.3516478871141
 30
0.0
  0
SPLINE
  5
2DBE
102
{ACAD_REACTORS
330
2E1E
102
}
330
A
100
AcDbEntity
  8
0
 62
   253
370
    13
100
AcDbSpline
210
0.0
220
0.0
230
1.0
 70
     8
 71
     3
 72
     8
 73
     4
 74
     0
 42
0.0000000001
 43
0.0000000001
 40
0.0
 40
0.0
 40
0.0
 40
0.0
 40
1.0
 40
1.0
 40
1.0
 40
1.0
 10
46.80706258606852
 20
71.77944962337846
 30
0.0
 10
46.90489780997034
 20
71.807008841379
 30
0.0
 10
46.96277216777138
 20
71.91483428180595
 30
0.0
 10
46.9362464204459
 20
72.01921481998295
 30
0.0
  0
SPLINE
  5
2DBF
102
{ACAD_REACTORS
330
2E1E
102
}
330
A
100
AcDbEntity
  8
0
 62
   253
370
    13
100
AcDbSpline
210
0.0
220
0.0
230
1.0
 70
     8
 71
     3
 72
     8
 73
     4
 74
     0
 42
0.0000000001
 43
0.0000000001
 40
0.0
 40
0.0
 40
0.0
 40
0.0
 40
1.0
 40
1.0
 40
1.0
 40
1.0
 10
46.35612488153517
 20
71.65164374990116
 30
0.0
 10
46.27585865910869
 20
71.62821841460078
 30
0.0
 10
46.22074022310766
 20
71.55070811397433
 30
0.0
 10
46.22074022310766
 20
71.46251861637267
 30
0.0
  0
SPLINE
  5
2DC0
102
{ACAD_REACTORS
330
2E1E
102
}
330
A
100
AcDbEntity
  8
0
 62
   253
370
    13
100
AcDbSpline
210
0.0
220
0.0
230
1.0
 70
     8
 71
     3
 72
     8
 73
     4
 74
     0
 42
0.0000000001
 43
0.0000000001
 40
0.0
 40
0.0
 40
0.0
 40
0.0
 40
1.0
 40
1.0
 40
1.0
 40
1.0
 10
46.40607596416108
 20
74.17124525559763
 30
0.0
 10
46.30376236733419
 20
74.17124525559763
 30
0.0
 10
46.22074022310766
 20
74.08305575799596
 30
0.0
 10
46.22074022310766
 20
73.97523031756907
 30
0.0
  0
SPLINE
  5
2DC5
102
{ACAD_REACTORS
330
2E1E
102
}
330
A
100
AcDbEntity
  8
0
 62
   253
370
    13
100
AcDbSpline
210
0.0
220
0.0
230
1.0
 70
     8
 71
     3
 72
     8
 73
     4
 74
     0
 42
0.0000000001
 43
0.0000000001
 40
0.0
 40
0.0
 40
0.0
 40
0.0
 40
1.0
 40
1.0
 40
1.0
 40
1.0
 10
43.04040646584907
 20
72.01990380043293
 30
0.0
 10
43.01422520874859
 20
71.91552326225593
 30
0.0
 10
43.07209956654966
 20
71.80838680227907
 30
0.0
 10
43.16993479045145
 20
71.78013860382844
 30
0.0
  0
SPLINE
  5
2DC6
102
{ACAD_REACTORS
330
2E1E
102
}
330
A
100
AcDbEntity
  8
0
 62
   253
370
    13
100
AcDbSpline
210
0.0
220
0.0
230
1.0
 70
     8
 71
     3
 72
     8
 73
     4
 74
     0
 42
0.0000000001
 43
0.0000000001
 40
0.0
 40
0.0
 40
0.0
 40
0.0
 40
1.0
 40
1.0
 40
1.0
 40
1.0
 10
43.31599864585416
 20
72.3516478871141
 30
0.0
 10
43.21644097082733
 20
72.37920710511463
 30
0.0
 10
43.11412737400043
 20
72.31788784506346
 30
0.0
 10
43.08725713644994
 20
72.21350730688659
 30
0.0
  0
SPLINE
  5
2DC7
102
{ACAD_REACTORS
330
2E1E
102
}
330
A
100
AcDbEntity
  8
0
 62
   253
370
    13
100
AcDbSpline
210
0.0
220
0.0
230
1.0
 70
     8
 71
     3
 72
     8
 73
     4
 74
     0
 42
0.0000000001
 43
0.0000000001
 40
0.0
 40
0.0
 40
0.0
 40
0.0
 40
1.0
 40
1.0
 40
1.0
 40
1.0
 10
42.42721386533776
 20
74.17124525559763
 30
0.0
 10
41.88739768275286
 20
74.17124525559763
 30
0.0
 10
41.44920611654475
 20
73.72375245331437
 30
0.0
 10
41.44920611654475
 20
73.17153462262911
 30
0.0
  0
SPLINE
  5
2DC8
102
{ACAD_REACTORS
330
2E1E
102
}
330
A
100
AcDbEntity
  8
0
 62
   253
370
    13
100
AcDbSpline
210
0.0
220
0.0
230
1.0
 70
     8
 71
     3
 72
     8
 73
     4
 74
     0
 42
0.0000000001
 43
0.0000000001
 40
0.0
 40
0.0
 40
0.0
 40
0.0
 40
1.0
 40
1.0
 40
1.0
 40
1.0
 10
43.75901307521231
 20
73.97523031756907
 30
0.0
 10
43.75901307521231
 20
74.08305575799596
 30
0.0
 10
43.67564644076079
 20
74.17124525559763
 30
0.0
 10
43.57264386348389
 20
74.17124525559763
 30
0.0
  0
SPLINE
  5
2DCF
102
{ACAD_REACTORS
330
2E1E
102
}
330
A
100
AcDbEntity
  8
0
 62
   253
370
    13
100
AcDbSpline
210
0.0
220
0.0
230
1.0
 70
     8
 71
     3
 72
     8
 73
     4
 74
     0
 42
0.0000000001
 43
0.0000000001
 40
0.0
 40
0.0
 40
0.0
 40
0.0
 40
1.0
 40
1.0
 40
1.0
 40
1.0
 10
45.01123504311038
 20
67.36652984104717
 30
0.0
 10
45.61237048574644
 20
67.36652984104717
 30
0.0
 10
46.1246274503309
 20
67.81023325085539
 30
0.0
 10
46.22349614490775
 20
68.41619155664154
 30
0.0
  0
SPLINE
  5
2DD0
102
{ACAD_REACTORS
330
2E1E
102
}
330
A
100
AcDbEntity
  8
0
 62
   253
370
    13
100
AcDbSpline
210
0.0
220
0.0
230
1.0
 70
     8
 71
     3
 72
     8
 73
     4
 74
     0
 42
0.0000000001
 43
0.0000000001
 40
0.0
 40
0.0
 40
0.0
 40
0.0
 40
1.0
 40
1.0
 40
1.0
 40
1.0
 10
46.89663004457011
 20
69.01663801882768
 30
0.0
 10
46.86975980701961
 20
69.12101855700456
 30
0.0
 10
46.76675722974274
 20
69.18302679750571
 30
0.0
 10
46.66788853516589
 20
69.15477859905519
 30
0.0
  0
SPLINE
  5
2DD1
102
{ACAD_REACTORS
330
2E1E
102
}
330
A
100
AcDbEntity
  8
0
 62
   253
370
    13
100
AcDbSpline
210
0.0
220
0.0
230
1.0
 70
     8
 71
     3
 72
     8
 73
     4
 74
     0
 42
0.0000000001
 43
0.0000000001
 40
0.0
 40
0.0
 40
0.0
 40
0.0
 40
1.0
 40
1.0
 40
1.0
 40
1.0
 10
46.82394260709378
 20
68.57362358946938
 30
0.0
 10
46.9217778309956
 20
68.60118280746985
 30
0.0
 10
46.97965218879664
 20
68.7090082478968
 30
0.0
 10
46.95312644147116
 20
68.81373327629882
 30
0.0
  0
SPLINE
  5
2DD6
102
{ACAD_REACTORS
330
2E1E
102
}
330
A
100
AcDbEntity
  8
0
 62
   253
370
    13
100
AcDbSpline
210
0.0
220
0.0
230
1.0
 70
     8
 71
     3
 72
     8
 73
     4
 74
     0
 42
0.0000000001
 43
0.0000000001
 40
0.0
 40
0.0
 40
0.0
 40
0.0
 40
1.0
 40
1.0
 40
1.0
 40
1.0
 10
43.04040646584911
 20
68.81373327629882
 30
0.0
 10
43.01422520874861
 20
68.7090082478968
 30
0.0
 10
43.07209956654968
 20
68.60187178791989
 30
0.0
 10
43.16993479045148
 20
68.57362358946938
 30
0.0
  0
SPLINE
  5
2DD7
102
{ACAD_REACTORS
330
2E1E
102
}
330
A
100
AcDbEntity
  8
0
 62
   253
370
    13
100
AcDbSpline
210
0.0
220
0.0
230
1.0
 70
     8
 71
     3
 72
     8
 73
     4
 74
     0
 42
0.0000000001
 43
0.0000000001
 40
0.0
 40
0.0
 40
0.0
 40
0.0
 40
1.0
 40
1.0
 40
1.0
 40
1.0
 10
43.31599864585412
 20
69.15546757950522
 30
0.0
 10
43.2164409708273
 20
69.18371577795574
 30
0.0
 10
43.11412737400041
 20
69.1217075374546
 30
0.0
 10
43.08725713644991
 20
69.01732699927771
 30
0.0
  0
SPLINE
  5
2DD8
102
{ACAD_REACTORS
330
2E1E
102
}
330
A
100
AcDbEntity
  8
0
 62
   253
370
    13
100
AcDbSpline
210
0.0
220
0.0
230
1.0
 70
     8
 71
     3
 72
     8
 73
     4
 74
     0
 42
0.0000000001
 43
0.0000000001
 40
0.0
 40
0.0
 40
0.0
 40
0.0
 40
1.0
 40
1.0
 40
1.0
 40
1.0
 10
41.93183692177864
 20
65.77395153084291
 30
0.0
 10
41.93183692177864
 20
66.0175061199223
 30
0.0
 10
41.788528988176
 20
66.2369463932514
 30
0.0
 10
41.57046667574697
 20
66.32858079310307
 30
0.0
  0
SPLINE
  5
2DD9
102
{ACAD_REACTORS
330
2E1E
102
}
330
A
100
AcDbEntity
  8
0
 62
   253
370
    13
100
AcDbSpline
210
0.0
220
0.0
230
1.0
 70
     8
 71
     3
 72
     8
 73
     4
 74
     0
 42
0.0000000001
 43
0.0000000001
 40
0.0
 40
0.0
 40
0.0
 40
0.0
 40
1.0
 40
1.0
 40
1.0
 40
1.0
 10
41.34964844151792
 20
65.16592628370665
 30
0.0
 10
41.67140231167385
 20
65.16592628370665
 30
0.0
 10
41.93183692177864
 20
65.43325069831161
 30
0.0
 10
41.93183692177864
 20
65.76361682409265
 30
0.0
  0
SPLINE
  5
2DDA
102
{ACAD_REACTORS
330
2E1E
102
}
330
A
100
AcDbEntity
  8
0
 62
   253
370
    13
100
AcDbSpline
210
0.0
220
0.0
230
1.0
 70
     8
 71
     3
 72
     8
 73
     4
 74
     0
 42
0.0000000001
 43
0.0000000001
 40
0.0
 40
0.0
 40
0.0
 40
0.0
 40
1.0
 40
1.0
 40
1.0
 40
1.0
 10
41.4443832533947
 20
66.5197728679816
 30
0.0
 10
41.4443832533947
 20
66.43985113578015
 30
0.0
 10
41.48882249242052
 20
66.36785267875382
 30
0.0
 10
41.57046667574697
 20
66.32858079310307
 30
0.0
  0
SPLINE
  5
2DE2
102
{ACAD_REACTORS
330
2E1E
102
}
330
A
100
AcDbEntity
  8
0
 62
   253
370
    13
100
AcDbSpline
210
0.0
220
0.0
230
1.0
 70
     8
 71
     3
 72
     8
 73
     4
 74
     0
 42
0.0000000001
 43
0.0000000001
 40
0.0
 40
0.0
 40
0.0
 40
0.0
 40
1.0
 40
1.0
 40
1.0
 40
1.0
 10
43.76039103611236
 20
68.41619155664154
 30
0.0
 10
43.85857075023914
 20
67.81092223130542
 30
0.0
 10
44.3715166952736
 20
67.3672188214972
 30
0.0
 10
44.97265213790966
 20
67.36652984104717
 30
0.0
  0
SPLINE
  5
2DE7
102
{ACAD_REACTORS
330
2E1E
102
}
330
A
100
AcDbEntity
  8
0
 62
   253
370
    13
100
AcDbSpline
210
0.0
220
0.0
230
1.0
 70
     8
 71
     3
 72
     8
 73
     4
 74
     0
 42
0.0000000001
 43
0.0000000001
 40
0.0
 40
0.0
 40
0.0
 40
0.0
 40
1.0
 40
1.0
 40
1.0
 40
1.0
 10
39.96273079564238
 20
73.72685286533942
 30
0.0
 10
39.94791771596705
 20
74.43340231682748
 30
0.0
 10
39.58448052858534
 20
75.08517782253943
 30
0.0
 10
38.99264632202447
 20
75.44517010767106
 30
0.0
  0
SPLINE
  5
2DE8
102
{ACAD_REACTORS
330
2E1E
102
}
330
A
100
AcDbEntity
  8
0
 62
   253
370
    13
100
AcDbSpline
210
0.0
220
0.0
230
1.0
 70
     8
 71
     3
 72
     8
 73
     4
 74
     0
 42
0.0000000001
 43
0.0000000001
 40
0.0
 40
0.0
 40
0.0
 40
0.0
 40
1.0
 40
1.0
 40
1.0
 40
1.0
 10
39.96273079564238
 20
65.36194122173521
 30
0.0
 10
39.96273079564238
 20
65.25411578130825
 30
0.0
 10
40.04540844964392
 20
65.16661526415663
 30
0.0
 10
40.14841102692079
 20
65.16592628370659
 30
0.0
  0
SPLINE
  5
2DEA
102
{ACAD_REACTORS
330
2E1E
102
}
330
A
100
AcDbEntity
  8
0
 62
   253
370
    13
100
AcDbSpline
210
0.0
220
0.0
230
1.0
 70
     8
 71
     3
 72
     8
 73
     4
 74
     0
 42
0.0000000001
 43
0.0000000001
 40
1.0
 40
1.0
 40
1.0
 40
1.0
 40
2.0
 40
2.0
 40
2.0
 40
2.0
 10
22.42783385259425
 20
90.26135019496907
 30
0.0
 10
22.23664177771575
 20
90.08600467044084
 30
0.0
 10
22.19909234319006
 20
89.80111125436058
 30
0.0
 10
22.34377823769272
 20
89.59648406070675
 30
0.0
  0
SPLINE
  5
2DEB
102
{ACAD_REACTORS
330
2E1E
102
}
330
A
100
AcDbEntity
  8
0
 62
   253
370
    13
100
AcDbSpline
210
0.0
220
0.0
230
1.0
 70
     8
 71
     3
 72
     8
 73
     4
 74
     0
 42
0.0000000001
 43
0.0000000001
 40
0.0
 40
0.0
 40
0.0
 40
0.0
 40
1.0
 40
1.0
 40
1.0
 40
1.0
 10
23.0809873192063
 20
90.24860405664385
 30
0.0
 10
22.89840749995294
 20
90.42222713004703
 30
0.0
 10
22.61695898612276
 20
90.42773897364716
 30
0.0
 10
22.42783385259425
 20
90.26135019496907
 30
0.0
  0
SPLINE
  5
2DEC
102
{ACAD_REACTORS
330
2E1E
102
}
330
A
100
AcDbEntity
  8
0
 62
   253
370
    13
100
AcDbSpline
210
0.0
220
0.0
230
1.0
 70
     8
 71
     3
 72
     8
 73
     4
 74
     0
 42
0.0000000001
 43
0.0000000001
 40
0.0
 40
0.0
 40
0.0
 40
0.0
 40
1.0
 40
1.0
 40
1.0
 40
1.0
 10
22.34377823769272
 20
89.59648406070675
 30
0.0
 10
26.47800542799393
 20
83.39014816699238
 30
0.0
 10
32.24649424572521
 20
78.48667430425206
 30
0.0
 10
38.99264632202447
 20
75.44517010767106
 30
0.0
  0
SPLINE
  5
2DED
102
{ACAD_REACTORS
330
2E1E
102
}
330
A
100
AcDbEntity
  8
0
 62
   253
370
    13
100
AcDbSpline
210
0.0
220
0.0
230
1.0
 70
     8
 71
     3
 72
     8
 73
     4
 74
     0
 42
0.0000000001
 43
0.0000000001
 40
0.0
 40
0.0
 40
0.0
 40
0.0
 40
1.0
 40
1.0
 40
1.0
 40
1.0
 10
23.0809873192063
 20
90.24860405664384
 30
0.0
 10
30.58363992961954
 20
83.19275526806382
 30
0.0
 10
39.53797434820955
 20
77.91826543299163
 30
0.0
 10
49.3156404045647
 20
74.79959542600915
 30
0.0
  0
LINE
  5
2DF2
102
{ACAD_REACTORS
330
2E1E
102
}
330
A
100
AcDbEntity
  8
0
 62
   253
370
    13
100
AcDbLine
 10
40.14841102692079
 20
65.16592628370659
 30
0.0
 11
41.34964844151792
 21
65.16592628370665
 31
0.0
  0
LINE
  5
2DF4
102
{ACAD_REACTORS
330
2E1E
102
}
330
A
100
AcDbEntity
  8
0
 62
   253
370
    13
100
AcDbLine
 10
39.96273079564238
 20
73.72685286533942
 30
0.0
 11
39.96273079564238
 21
65.36194122173521
 31
0.0
  0
LINE
  5
2DF7
102
{ACAD_REACTORS
330
2E1E
102
}
330
A
100
AcDbEntity
  8
0
 62
   253
370
    13
100
AcDbLine
 10
41.44438325339467
 20
66.5197728679816
 30
0.0
 11
41.44438325339467
 21
73.16567828880415
 31
0.0
  0
LINE
  5
2DFB
102
{ACAD_REACTORS
330
2E1E
102
}
330
A
100
AcDbEntity
  8
0
 62
   253
370
    13
100
AcDbLine
 10
44.98608725668495
 20
67.36652984104722
 30
0.0
 11
45.00985708221036
 21
67.36652984104722
 31
0.0
  0
LINE
  5
2DFC
102
{ACAD_REACTORS
330
2E1E
102
}
330
A
100
AcDbEntity
  8
0
 62
   253
370
    13
100
AcDbLine
 10
41.93183692177864
 20
65.76361682409265
 30
0.0
 11
41.93183692177864
 21
65.77395153084291
 31
0.0
  0
LINE
  5
2DFE
102
{ACAD_REACTORS
330
2E1E
102
}
330
A
100
AcDbEntity
  8
0
 62
   253
370
    13
100
AcDbLine
 10
46.40607596416017
 20
74.17124525559763
 30
0.0
 11
49.23675214303955
 21
74.17124525559763
 31
0.0
  0
LINE
  5
2E00
102
{ACAD_REACTORS
330
2E1E
102
}
330
A
100
AcDbEntity
  8
0
 62
   253
370
    13
100
AcDbLine
 10
46.66168771111577
 20
72.3516478871141
 30
0.0
 11
46.22074022310766
 21
72.23521019106198
 31
0.0
  0
LINE
  5
2E01
102
{ACAD_REACTORS
330
2E1E
102
}
330
A
100
AcDbEntity
  8
0
 62
   253
370
    13
100
AcDbLine
 10
46.9362464204459
 20
72.01921481998295
 30
0.0
 11
46.89042922051998
 21
72.21350730688659
 31
0.0
  0
LINE
  5
2E02
102
{ACAD_REACTORS
330
2E1E
102
}
330
A
100
AcDbEntity
  8
0
 62
   253
370
    13
100
AcDbLine
 10
46.35612488153517
 20
71.65164374990116
 30
0.0
 11
46.80706258606849
 21
71.77944962337846
 31
0.0
  0
LINE
  5
2E03
102
{ACAD_REACTORS
330
2E1E
102
}
330
A
100
AcDbEntity
  8
0
 62
   253
370
    13
100
AcDbLine
 10
46.22074022310766
 20
72.23452121061194
 30
0.0
 11
46.22074022310766
 21
73.9752303175711
 31
0.0
  0
LINE
  5
2E07
102
{ACAD_REACTORS
330
2E1E
102
}
330
A
100
AcDbEntity
  8
0
 62
   253
370
    13
100
AcDbLine
 10
43.16993479045145
 20
71.78013860382844
 30
0.0
 11
43.75763511431227
 21
71.61099390335045
 31
0.0
  0
LINE
  5
2E08
102
{ACAD_REACTORS
330
2E1E
102
}
330
A
100
AcDbEntity
  8
0
 62
   253
370
    13
100
AcDbLine
 10
43.08725713644994
 20
72.21350730688659
 30
0.0
 11
43.04040646584907
 21
72.01990380043293
 31
0.0
  0
LINE
  5
2E09
102
{ACAD_REACTORS
330
2E1E
102
}
330
A
100
AcDbEntity
  8
0
 62
   253
370
    13
100
AcDbLine
 10
43.75763511431227
 20
72.23452121061194
 30
0.0
 11
43.31599864585416
 21
72.3516478871141
 31
0.0
  0
LINE
  5
2E0A
102
{ACAD_REACTORS
330
2E1E
102
}
330
A
100
AcDbEntity
  8
0
 62
   253
370
    13
100
AcDbLine
 10
43.75901307521231
 20
73.97523031756907
 30
0.0
 11
43.75901307521231
 21
72.23452121061194
 31
0.0
  0
LINE
  5
2E0B
102
{ACAD_REACTORS
330
2E1E
102
}
330
A
100
AcDbEntity
  8
0
 62
   253
370
    13
100
AcDbLine
 10
42.42996978713784
 20
74.17124525559763
 30
0.0
 11
43.57264386348481
 21
74.17124525559763
 31
0.0
  0
LINE
  5
2E13
102
{ACAD_REACTORS
330
2E1E
102
}
330
A
100
AcDbEntity
  8
0
 62
   253
370
    13
100
AcDbLine
 10
46.66788853516589
 20
69.15477859905519
 30
0.0
 11
46.22074022310766
 21
69.03670349790234
 31
0.0
  0
LINE
  5
2E14
102
{ACAD_REACTORS
330
2E1E
102
}
330
A
100
AcDbEntity
  8
0
 62
   253
370
    13
100
AcDbLine
 10
46.95281111094251
 20
68.8149627471796
 30
0.0
 11
46.89663004457011
 21
69.01663801882768
 31
0.0
  0
LINE
  5
2E15
102
{ACAD_REACTORS
330
2E1E
102
}
330
A
100
AcDbEntity
  8
0
 62
   253
370
    13
100
AcDbLine
 10
46.22694104715779
 20
68.41481359574146
 30
0.0
 11
46.82394260709378
 21
68.57362358946938
 31
0.0
  0
LINE
  5
2E17
102
{ACAD_REACTORS
330
2E1E
102
}
330
A
100
AcDbEntity
  8
0
 62
   253
370
    13
100
AcDbLine
 10
43.16993479045145
 20
68.57362358946938
 30
0.0
 11
43.75763511431227
 21
68.41481359574146
 31
0.0
  0
LINE
  5
2E18
102
{ACAD_REACTORS
330
2E1E
102
}
330
A
100
AcDbEntity
  8
0
 62
   253
370
    13
100
AcDbLine
 10
43.08639481356854
 20
69.01385418901648
 30
0.0
 11
43.04040646584911
 21
68.81373327629882
 31
0.0
  0
LINE
  5
2E19
102
{ACAD_REACTORS
330
2E1E
102
}
330
A
100
AcDbEntity
  8
0
 62
   253
370
    13
100
AcDbLine
 10
43.75763511431227
 20
69.03834090300307
 30
0.0
 11
43.31599864585416
 21
69.15546757950522
 31
0.0
  0
LINE
  5
2E1B
102
{ACAD_REACTORS
330
2E1E
102
}
330
A
100
AcDbEntity
  8
0
 62
   253
370
    13
100
AcDbLine
 10
46.22074022310766
 20
69.03670349790234
 30
0.0
 11
46.22074022310766
 21
71.46251861637267
 31
0.0
  0
LINE
  5
2E1C
102
{ACAD_REACTORS
330
2E1E
102
}
330
A
100
AcDbEntity
  8
0
 62
   253
370
    13
100
AcDbLine
 10
43.75901307521231
 20
71.61030492290041
 30
0.0
 11
43.75901307521231
 21
69.03834090300307
 31
0.0
  0
LINE
  5
2E1D
102
{ACAD_REACTORS
330
2E1E
102
}
330
A
100
AcDbEntity
  8
0
 62
   253
370
    13
100
AcDbLine
 10
49.42139890364165
 20
74.36726019362399
 30
0.0
 11
49.42139890364165
 21
74.62114948945599
 31
0.0
  0
LINE
  5
2F0A
330
A
100
AcDbEntity
  8
0
370
    13
100
AcDbLine
 10
4.94639086994371
 20
-38.65306656692878
 30
0.0
 11
4.94639086994371
 21
-42.65364977029444
 31
0.0
  0
LINE
  5
2F0B
330
A
100
AcDbEntity
  8
0
370
    13
100
AcDbLine
 10
18.94639086994371
 20
-38.65306656692878
 30
0.0
 11
18.94639086994371
 21
-42.65364977029444
 31
0.0
  0
DIMENSION
  5
2F0E
330
A
100
AcDbEntity
  8
寸法
370
    13
100
AcDbDimension
  2
*D0
 10
-30.55360908574277
 20
-43.66977771597689
 30
0.0
 11
-32.55360908574276
 21
16.33022206377486
 31
0.0
 70
    32
 71
     5
 42
119.9999995595035
  3
ISO-25 1／10
100
AcDbAlignedDimension
 13
-11.5894360439566
 23
76.33022184352661
 33
0.0
 14
-25.33154138900425
 24
-43.66977771597689
 34
0.0
 50
270.0
100
AcDbRotatedDimension
1001
ACAD
1000
DSTYLE
1002
{
1070
   279
1070
     1
1002
}
  0
DIMENSION
  5
2F3F
330
A
100
AcDbEntity
  8
寸法
370
    13
100
AcDbDimension
  2
*D4
 10
54.44639082563025
 20
-43.66977771597689
 30
0.0
 11
52.44639082563026
 21
-35.16977770364533
 31
0.0
 70
    32
 71
     5
 42
17.00000002466308
  3
ISO-25 1／10
100
AcDbAlignedDimension
 13
26.48888092700586
 23
-26.6697776913138
 33
0.0
 14
49.22432312889169
 24
-43.66977771597689
 34
0.0
 50
270.0
100
AcDbRotatedDimension
1001
ACAD
1000
DSTYLE
1002
{
1070
   279
1070
     1
1002
}
  0
DIMENSION
  5
2F40
330
A
100
AcDbEntity
  8
寸法
370
    13
100
AcDbDimension
  2
*D2
 10
49.44639082563025
 20
-58.66977752066439
 30
0.0
 11
11.94639090343036
 21
-56.6697775206644
 31
0.0
 70
    32
 71
     5
 42
74.99999984439978
  3
ISO-25 1／10
100
AcDbAlignedDimension
 13
-25.55360901876952
 23
-43.44753491374141
 33
0.0
 14
49.44639082563025
 24
-43.44855118475629
 34
0.0
100
AcDbRotatedDimension
1001
ACAD
1000
DSTYLE
1002
{
1070
   279
1070
     1
1002
}
  0
DIMENSION
  5
2F41
330
A
100
AcDbEntity
  8
寸法
370
    13
100
AcDbDimension
  2
*D1
 10
24.44640837426633
 20
-53.66977761832064
 30
0.0
 11
11.946408622287
 21
-51.66977761832064
 31
0.0
 70
    32
  1
%%c<>
 71
     5
 42
24.99999950395866
  3
ISO-25 1／10
100
AcDbAlignedDimension
 13
-0.5535911296923289
 23
-31.68625408602574
 33
0.0
 14
24.44640837426633
 24
-31.56032005997085
 34
0.0
100
AcDbRotatedDimension
1001
ACAD
1000
DSTYLE
1002
{
1070
   279
1070
     1
1002
}
  0
DIMENSION
  5
2F42
330
A
100
AcDbEntity
  8
寸法
370
    13
100
AcDbDimension
  2
*D3
 10
18.94639086994371
 20
-48.66977771597689
 30
0.0
 11
11.94639086994371
 21
-46.66977771597689
 31
0.0
 70
    32
  1
%%c<>
 71
     5
 42
14.0
  3
ISO-25 1／10
100
AcDbAlignedDimension
 13
4.946390869943712
 23
-42.65364977029444
 33
0.0
 14
18.94639086994371
 24
-42.65364977029444
 34
0.0
100
AcDbRotatedDimension
1001
ACAD
1000
DSTYLE
1002
{
1070
   279
1070
     1
1002
}
  0
SPLINE
  5
304C
102
{ACAD_REACTORS
330
3253
102
}
330
A
100
AcDbEntity
  8
0
 62
   253
370
    13
100
AcDbSpline
210
0.0
220
0.0
230
1.0
 70
     8
 71
     3
 72
     8
 73
     4
 74
     0
 42
0.0000000001
 43
0.0000000001
 40
1.0
 40
1.0
 40
1.0
 40
1.0
 40
2.0
 40
2.0
 40
2.0
 40
2.0
 10
30.45327937572044
 20
-6.069339516526273
 30
0.0
 10
30.45327937572044
 20
-6.069339516526273
 30
0.0
 10
31.69585561731837
 20
-4.460225675521545
 30
0.0
 10
31.82228352989572
 20
-2.865580423967177
 30
0.0
  0
SPLINE
  5
304D
102
{ACAD_REACTORS
330
3253
102
}
330
A
100
AcDbEntity
  8
0
 62
   253
370
    13
100
AcDbSpline
210
0.0
220
0.0
230
1.0
 70
     8
 71
     3
 72
     8
 73
     4
 74
     0
 42
0.0000000001
 43
0.0000000001
 40
3.0
 40
3.0
 40
3.0
 40
3.0
 40
4.0
 40
4.0
 40
4.0
 40
4.0
 10
31.09609813558232
 20
0.3936415948178897
 30
0.0
 10
30.64826084307405
 20
1.199404231107703
 30
0.0
 10
30.01164290726233
 20
1.88459528864541
 30
0.0
 10
29.24136276414815
 20
2.390306938954662
 30
0.0
  0
SPLINE
  5
304E
102
{ACAD_REACTORS
330
3253
102
}
330
A
100
AcDbEntity
  8
0
 62
   253
370
    13
100
AcDbSpline
210
0.0
220
0.0
230
1.0
 70
     8
 71
     3
 72
     8
 73
     4
 74
     0
 42
0.0000000001
 43
0.0000000001
 40
0.0
 40
0.0
 40
0.0
 40
0.0
 40
1.0
 40
1.0
 40
1.0
 40
1.0
 10
30.62345754687361
 20
7.271733427294602
 30
0.0
 10
30.88389215697843
 20
7.271733427294602
 30
0.0
 10
31.10126548895742
 20
7.470848777348262
 30
0.0
 10
31.1236573535828
 20
7.730249916778003
 30
0.0
  0
SPLINE
  5
304F
102
{ACAD_REACTORS
330
3253
102
}
330
A
100
AcDbEntity
  8
0
 62
   253
370
    13
100
AcDbSpline
210
0.0
220
0.0
230
1.0
 70
    24
 71
     3
 72
     8
 73
     4
 74
     0
 42
0.0000000001
 43
0.0000000001
 40
1.0
 40
1.0
 40
1.0
 40
1.0
 40
2.0
 40
2.0
 40
2.0
 40
2.0
 10
20.14096449015542
 20
46.76168139044725
 30
0.0
 10
20.14096449015542
 20
46.76168139044725
 30
0.0
 10
20.14096449015542
 20
-22.11156031462178
 30
0.0
 10
20.14096449015542
 20
-22.11156031462178
 30
0.0
  0
SPLINE
  5
3050
102
{ACAD_REACTORS
330
3253
102
}
330
A
100
AcDbEntity
  8
0
 62
   253
370
    13
100
AcDbSpline
210
0.0
220
0.0
230
1.0
 70
     8
 71
     3
 72
     8
 73
     4
 74
     0
 42
0.0000000001
 43
0.0000000001
 40
2.0
 40
2.0
 40
2.0
 40
2.0
 40
3.0
 40
3.0
 40
3.0
 40
3.0
 10
20.14096449015542
 20
-22.11156031462178
 30
0.0
 10
20.14096449015542
 20
-22.38887494575195
 30
0.0
 10
20.36522762663457
 20
-22.61382706268102
 30
0.0
 10
20.64323123821469
 20
-22.61382706268102
 30
0.0
  0
SPLINE
  5
3051
102
{ACAD_REACTORS
330
3253
102
}
330
A
100
AcDbEntity
  8
0
 62
   253
370
    13
100
AcDbSpline
210
0.0
220
0.0
230
1.0
 70
     8
 71
     3
 72
     8
 73
     4
 74
     0
 42
0.0000000001
 43
0.0000000001
 40
0.0
 40
0.0
 40
0.0
 40
0.0
 40
1.0
 40
1.0
 40
1.0
 40
1.0
 10
26.60187866014949
 20
-22.61382706268102
 30
0.0
 10
26.86231327025431
 20
-22.61382706268102
 30
0.0
 10
27.08037558268332
 20
-22.41471171262742
 30
0.0
 10
27.10276744730872
 20
-22.15531057319759
 30
0.0
  0
SPLINE
  5
3052
102
{ACAD_REACTORS
330
3253
102
}
330
A
100
AcDbEntity
  8
0
 62
   253
370
    13
100
AcDbSpline
210
0.0
220
0.0
230
1.0
 70
     8
 71
     3
 72
     8
 73
     4
 74
     0
 42
0.0000000001
 43
0.0000000001
 40
0.0
 40
0.0
 40
0.0
 40
0.0
 40
1.0
 40
1.0
 40
1.0
 40
1.0
 10
20.14096449015542
 20
7.775033646028841
 30
0.0
 10
20.14096449015542
 20
7.49703003444878
 30
0.0
 10
20.36522762663457
 20
7.271733427294602
 30
0.0
 10
20.6439202186647
 20
7.271733427294602
 30
0.0
  0
SPLINE
  5
3053
102
{ACAD_REACTORS
330
3253
102
}
330
A
100
AcDbEntity
  8
0
 62
   253
370
    13
100
AcDbSpline
210
0.0
220
0.0
230
1.0
 70
     8
 71
     3
 72
     8
 73
     4
 74
     0
 42
0.0000000001
 43
0.0000000001
 40
0.0
 40
0.0
 40
0.0
 40
0.0
 40
1.0
 40
1.0
 40
1.0
 40
1.0
 10
28.36497963173199
 20
-7.610244292979619
 30
0.0
 10
29.17074226802184
 20
-7.264720597298239
 30
0.0
 10
29.88555948491004
 20
-6.736961572588487
 30
0.0
 10
30.45327937572044
 20
-6.069339516526273
 30
0.0
  0
SPLINE
  5
3054
102
{ACAD_REACTORS
330
3253
102
}
330
A
100
AcDbEntity
  8
0
 62
   253
370
    13
100
AcDbSpline
210
0.0
220
0.0
230
1.0
 70
     8
 71
     3
 72
     8
 73
     4
 74
     0
 42
0.0000000001
 43
0.0000000001
 40
0.0
 40
0.0
 40
0.0
 40
0.0
 40
1.0
 40
1.0
 40
1.0
 40
1.0
 10
20.64323123821469
 20
47.26394813850643
 30
0.0
 10
20.36522762663457
 20
47.26394813850643
 30
0.0
 10
20.14096449015542
 20
47.03899602157733
 30
0.0
 10
20.14096449015542
 20
46.76168139044725
 30
0.0
  0
SPLINE
  5
3055
102
{ACAD_REACTORS
330
3253
102
}
330
A
100
AcDbEntity
  8
0
 62
   253
370
    13
100
AcDbSpline
210
0.0
220
0.0
230
1.0
 70
     8
 71
     3
 72
     8
 73
     4
 74
     0
 42
0.0000000001
 43
0.0000000001
 40
2.0
 40
2.0
 40
2.0
 40
2.0
 40
3.0
 40
3.0
 40
3.0
 40
3.0
 10
31.82228352989572
 20
-2.865580423967177
 30
0.0
 10
31.948366952248
 20
-1.270590682187762
 30
0.0
 10
31.09609813558232
 20
0.3936415948178897
 30
0.0
 10
31.09609813558232
 20
0.3936415948178897
 30
0.0
  0
SPLINE
  5
3056
102
{ACAD_REACTORS
330
3253
102
}
330
A
100
AcDbEntity
  8
0
 62
   253
370
    13
100
AcDbSpline
210
0.0
220
0.0
230
1.0
 70
     8
 71
     3
 72
     8
 73
     4
 74
     0
 42
0.0000000001
 43
0.0000000001
 40
1.0
 40
1.0
 40
1.0
 40
1.0
 40
2.0
 40
2.0
 40
2.0
 40
2.0
 10
34.29055599206616
 20
23.58747946404525
 30
0.0
 10
34.29055599206616
 20
23.58747946404525
 30
0.0
 10
35.55931349076455
 20
24.83487856879321
 30
0.0
 10
35.7291471716927
 20
26.73129725745314
 30
0.0
  0
SPLINE
  5
3057
102
{ACAD_REACTORS
330
3253
102
}
330
A
100
AcDbEntity
  8
0
 62
   253
370
    13
100
AcDbSpline
210
0.0
220
0.0
230
1.0
 70
     8
 71
     3
 72
     8
 73
     4
 74
     0
 42
0.0000000001
 43
0.0000000001
 40
0.0
 40
0.0
 40
0.0
 40
0.0
 40
1.0
 40
1.0
 40
1.0
 40
1.0
 10
32.39723771543127
 20
22.2646370000209
 30
0.0
 10
33.11239942254444
 20
22.57226677095152
 30
0.0
 10
33.75659614330634
 20
23.02251549503483
 30
0.0
 10
34.29055599206616
 20
23.58747946404525
 30
0.0
  0
SPLINE
  5
3058
102
{ACAD_REACTORS
330
3253
102
}
330
A
100
AcDbEntity
  8
0
 62
   253
370
    13
100
AcDbSpline
210
0.0
220
0.0
230
1.0
 70
     8
 71
     3
 72
     8
 73
     4
 74
     0
 42
0.0000000001
 43
0.0000000001
 40
2.0
 40
2.0
 40
2.0
 40
2.0
 40
3.0
 40
3.0
 40
3.0
 40
3.0
 10
35.7291471716927
 20
26.73129725745314
 30
0.0
 10
35.8979473819458
 20
28.62771594611311
 30
0.0
 10
35.06669246900547
 20
30.37531485757031
 30
0.0
 10
35.06669246900547
 20
30.37531485757031
 30
0.0
  0
SPLINE
  5
3059
102
{ACAD_REACTORS
330
3253
102
}
330
A
100
AcDbEntity
  8
0
 62
   253
370
    13
100
AcDbSpline
210
0.0
220
0.0
230
1.0
 70
     8
 71
     3
 72
     8
 73
     4
 74
     0
 42
0.0000000001
 43
0.0000000001
 40
3.0
 40
3.0
 40
3.0
 40
3.0
 40
4.0
 40
4.0
 40
4.0
 40
4.0
 10
35.06669246900547
 20
30.37531485757031
 30
0.0
 10
34.6229890591973
 20
31.1352602939343
 30
0.0
 10
34.00841849778599
 20
31.78221293649619
 30
0.0
 10
33.27258737717242
 20
32.26484374173017
 30
0.0
  0
SPLINE
  5
305A
102
{ACAD_REACTORS
330
3253
102
}
330
A
100
AcDbEntity
  8
0
 62
   253
370
    13
100
AcDbSpline
210
0.0
220
0.0
230
1.0
 70
     8
 71
     3
 72
     8
 73
     4
 74
     0
 42
0.0000000001
 43
0.0000000001
 40
0.0
 40
0.0
 40
0.0
 40
0.0
 40
1.0
 40
1.0
 40
1.0
 40
1.0
 10
34.54272283677083
 20
46.7172421514214
 30
0.0
 10
34.55512448487103
 20
46.85744967299902
 30
0.0
 10
34.50724034359517
 20
46.99662372390153
 30
0.0
 10
34.41147206104339
 20
47.1003152816285
 30
0.0
  0
SPLINE
  5
305B
102
{ACAD_REACTORS
330
3253
102
}
330
A
100
AcDbEntity
  8
0
 62
   253
370
    13
100
AcDbSpline
210
0.0
220
0.0
230
1.0
 70
     8
 71
     3
 72
     8
 73
     4
 74
     0
 42
0.0000000001
 43
0.0000000001
 40
1.0
 40
1.0
 40
1.0
 40
1.0
 40
2.0
 40
2.0
 40
2.0
 40
2.0
 10
34.41147206104339
 20
47.1003152816285
 30
0.0
 10
34.31673724916668
 20
47.20469581980538
 30
0.0
 10
34.18204157118917
 20
47.26325915805651
 30
0.0
 10
34.04114506916157
 20
47.26394813850643
 30
0.0
  0
SPLINE
  5
305C
102
{ACAD_REACTORS
330
3252
102
}
330
A
100
AcDbEntity
  8
0
 62
   253
370
    13
100
AcDbSpline
210
0.0
220
0.0
230
1.0
 70
     8
 71
     3
 72
     8
 73
     4
 74
     0
 42
0.0000000001
 43
0.0000000001
 40
0.0
 40
0.0
 40
0.0
 40
0.0
 40
1.0
 40
1.0
 40
1.0
 40
1.0
 10
-10.81012306964396
 20
-12.13328110106093
 30
0.0
 10
-6.594596186241318
 20
9.402525315210906
 30
0.0
 10
-6.589773323091208
 20
31.55083535154403
 30
0.0
 10
-10.79496549974371
 20
53.08870870916587
 30
0.0
  0
SPLINE
  5
305D
102
{ACAD_REACTORS
330
3252
102
}
330
A
100
AcDbEntity
  8
0
 62
   253
370
    13
100
AcDbSpline
210
0.0
220
0.0
230
1.0
 70
     8
 71
     3
 72
     8
 73
     4
 74
     0
 42
0.0000000001
 43
0.0000000001
 40
1.0
 40
1.0
 40
1.0
 40
1.0
 40
2.0
 40
2.0
 40
2.0
 40
2.0
 10
-10.38640009288619
 20
-13.76892068939102
 30
0.0
 10
-10.00746084537919
 20
-14.22881513977452
 30
0.0
 10
-9.443185856818786
 20
-14.49545057392941
 30
0.0
 10
-8.846873277332804
 20
-14.49545057392941
 30
0.0
  0
SPLINE
  5
305E
102
{ACAD_REACTORS
330
3252
102
}
330
A
100
AcDbEntity
  8
0
 62
   253
370
    13
100
AcDbSpline
210
0.0
220
0.0
230
1.0
 70
     8
 71
     3
 72
     8
 73
     4
 74
     0
 42
0.0000000001
 43
0.0000000001
 40
0.0
 40
0.0
 40
0.0
 40
0.0
 40
1.0
 40
1.0
 40
1.0
 40
1.0
 10
-10.80392224559384
 20
-12.11812353116062
 30
0.0
 10
-10.91829300029598
 20
-12.70272344299641
 30
0.0
 10
-10.76533934039315
 20
-13.30799276833255
 30
0.0
 10
-10.38640009288619
 20
-13.76892068939102
 30
0.0
  0
SPLINE
  5
305F
102
{ACAD_REACTORS
330
3252
102
}
330
A
100
AcDbEntity
  8
0
 62
   253
370
    13
100
AcDbSpline
210
0.0
220
0.0
230
1.0
 70
     8
 71
     3
 72
     8
 73
     4
 74
     0
 42
0.0000000001
 43
0.0000000001
 40
0.0
 40
0.0
 40
0.0
 40
0.0
 40
1.0
 40
1.0
 40
1.0
 40
1.0
 10
-8.835505099907578
 20
55.48808312633503
 30
0.0
 10
-9.43181767939356
 20
55.48808312633503
 30
0.0
 10
-9.996092667953973
 20
55.22144769218011
 30
0.0
 10
-10.37572089591097
 20
54.76155324179666
 30
0.0
  0
SPLINE
  5
3060
102
{ACAD_REACTORS
330
3252
102
}
330
A
100
AcDbEntity
  8
0
 62
   253
370
    13
100
AcDbSpline
210
0.0
220
0.0
230
1.0
 70
     8
 71
     3
 72
     8
 73
     4
 74
     0
 42
0.0000000001
 43
0.0000000001
 40
1.0
 40
1.0
 40
1.0
 40
1.0
 40
2.0
 40
2.0
 40
2.0
 40
2.0
 10
-10.37572089591097
 20
54.76155324179666
 30
0.0
 10
-10.75466014341793
 20
54.30131430118819
 30
0.0
 10
-10.90795829354576
 20
53.69604497585209
 30
0.0
 10
-10.79358753884366
 20
53.11041159334127
 30
0.0
  0
SPLINE
  5
3061
102
{ACAD_REACTORS
330
3252
102
}
330
A
100
AcDbEntity
  8
0
 62
   253
370
    13
100
AcDbSpline
210
0.0
220
0.0
230
1.0
 70
     8
 71
     3
 72
     8
 73
     4
 74
     0
 42
0.0000000001
 43
0.0000000001
 40
0.0
 40
0.0
 40
0.0
 40
0.0
 40
1.0
 40
1.0
 40
1.0
 40
1.0
 10
-1.555048684623443
 20
-14.49545057392941
 30
0.0
 10
-1.446534263746457
 20
-14.49545057392941
 30
0.0
 10
-1.359722727044868
 20
-14.40795005677782
 30
0.0
 10
-1.358344766144824
 20
-14.30012461635084
 30
0.0
  0
SPLINE
  5
3062
102
{ACAD_REACTORS
330
3252
102
}
330
A
100
AcDbEntity
  8
0
 62
   253
370
    13
100
AcDbSpline
210
0.0
220
0.0
230
1.0
 70
     8
 71
     3
 72
     8
 73
     4
 74
     0
 42
0.0000000001
 43
0.0000000001
 40
0.0
 40
0.0
 40
0.0
 40
0.0
 40
1.0
 40
1.0
 40
1.0
 40
1.0
 10
-1.35903374659486
 20
55.29206818830648
 30
0.0
 10
-1.35903374659486
 20
55.39989362873342
 30
0.0
 10
-1.447223244196464
 20
55.48808312633503
 30
0.0
 10
-1.555048684623443
 20
55.48808312633503
 30
0.0
  0
LWPOLYLINE
  5
3143
102
{ACAD_REACTORS
330
3254
102
}
330
A
100
AcDbEntity
  8
0
 62
     4
370
    13
100
AcDbPolyline
 90
        6
 70
     0
 43
0.0
 10
-1.359033746594747
 20
125.3293811431682
 10
-1.35903374659486
 20
-23.67061885683174
 10
-0.3590337465948608
 20
-24.67061885683174
 10
7.640966253405139
 20
-24.67061885683174
 10
8.640966253405139
 20
-23.67061885683174
 10
8.640966253405252
 20
125.3293811431682
  0
LWPOLYLINE
  5
3144
102
{ACAD_REACTORS
330
3254
102
}
330
A
100
AcDbEntity
  8
0
 62
     4
370
    13
100
AcDbPolyline
 90
        6
 70
     0
 43
0.0
 10
10.14096625340525
 20
125.3293811431682
 10
10.14096625340513
 20
-23.67061885683174
 10
11.14096625340514
 20
-24.67061885683174
 10
19.14096625340511
 20
-24.67061885683174
 10
20.14096625340511
 20
-23.67061885683174
 10
20.14096625340522
 20
125.3293811431682
  0
LWPOLYLINE
  5
3145
102
{ACAD_REACTORS
330
3254
102
}
330
A
100
AcDbEntity
  8
0
 62
     4
370
    13
100
AcDbPolyline
 90
        6
 70
     0
 43
0.0
 10
-1.359033746594747
 20
125.3293811431682
 10
-1.35903374659486
 20
-23.67061885683174
 10
-0.3590337465948608
 20
-24.67061885683174
 10
19.14096625340511
 20
-24.67061885683174
 10
20.14096625340511
 20
-23.67061885683174
 10
20.14096625340522
 20
125.3293811431682
  0
LINE
  5
3146
102
{ACAD_REACTORS
330
3252
102
}
330
A
100
AcDbEntity
  8
0
 62
   253
370
    13
100
AcDbLine
 10
-1.359033746594832
 20
-14.30494747950086
 30
0.0
 11
-1.359033746594832
 21
55.29758003190654
 31
0.0
  0
LWPOLYLINE
  5
3153
330
A
100
AcDbEntity
  8
0
370
    13
100
AcDbPolyline
 90
        4
 70
     1
 43
0.0
 10
1.390966253405139
 20
-26.67061885683175
 10
17.39096625340514
 20
-26.67061885683175
 10
17.39096625340514
 20
-24.67061885683174
 10
1.390966253405139
 20
-24.67061885683174
  0
LINE
  5
3160
102
{ACAD_REACTORS
330
3252
102
}
330
A
100
AcDbEntity
  8
0
 62
   253
370
    13
100
AcDbLine
 10
-1.761053839177236
 20
-14.50681875135464
 30
0.0
 11
-1.761053839177236
 21
-19.50192701394664
 31
0.0
  0
LINE
  5
3161
102
{ACAD_REACTORS
330
3252
102
}
330
A
100
AcDbEntity
  8
0
 62
   253
370
    13
100
AcDbLine
 10
-6.756162101769263
 20
-19.50192701394664
 30
0.0
 11
-6.756162101769263
 21
-14.50681875135464
 31
0.0
  0
LINE
  5
3162
102
{ACAD_REACTORS
330
3252
102
}
330
A
100
AcDbEntity
  8
0
 62
   253
370
    13
100
AcDbLine
 10
-1.761053839177236
 20
-19.50192701394664
 30
0.0
 11
-6.756162101769263
 21
-19.50192701394664
 31
0.0
  0
LINE
  5
3163
102
{ACAD_REACTORS
330
3252
102
}
330
A
100
AcDbEntity
  8
0
 62
   253
370
    13
100
AcDbLine
 10
-8.841016943507696
 20
-14.50681875135464
 30
0.0
 11
-1.559871547773553
 21
-14.50681875135464
 31
0.0
  0
LINE
  5
316C
102
{ACAD_REACTORS
330
3253
102
}
330
A
100
AcDbEntity
  8
0
 62
   253
370
    13
100
AcDbLine
 10
27.09381070145859
 20
-22.14807627847249
 30
0.0
 11
28.36360167083198
 21
-7.60748837117956
 31
0.0
  0
LINE
  5
316F
102
{ACAD_REACTORS
330
3253
102
}
330
A
100
AcDbEntity
  8
0
 62
   253
370
    13
100
AcDbLine
 10
20.64874308181481
 20
-22.60314786570586
 30
0.0
 11
26.5963668165494
 21
-22.60314786570586
 31
0.0
  0
LINE
  5
3173
102
{ACAD_REACTORS
330
3253
102
}
330
A
100
AcDbEntity
  8
0
 62
   253
370
    13
100
AcDbLine
 10
20.14096449015542
 20
2.890506745663852
 30
0.0
 11
29.28442404227392
 21
2.890506745663852
 31
0.0
  0
LINE
  5
3174
102
{ACAD_REACTORS
330
3253
102
}
330
A
100
AcDbEntity
  8
0
 62
   253
370
    13
100
AcDbLine
 10
20.14096449015542
 20
4.393173107141588
 30
0.0
 11
29.41154093530126
 21
4.393173107141588
 31
0.0
  0
LINE
  5
3175
102
{ACAD_REACTORS
330
3253
102
}
330
A
100
AcDbEntity
  8
0
 62
   253
370
    13
100
AcDbLine
 10
20.64874308181481
 20
7.271733427294631
 30
0.0
 11
30.62828041002369
 21
7.271733427294631
 31
0.0
  0
LINE
  5
3176
102
{ACAD_REACTORS
330
3253
102
}
330
A
100
AcDbEntity
  8
0
 62
   253
370
    13
100
AcDbLine
 10
29.24205174459818
 20
2.393062860754692
 30
0.0
 11
29.2851130227239
 21
2.890506745663852
 31
0.0
  0
LINE
  5
3177
102
{ACAD_REACTORS
330
3253
102
}
330
A
100
AcDbEntity
  8
0
 62
   253
370
    13
100
AcDbLine
 10
29.28442404227392
 20
2.890506745663852
 30
0.0
 11
29.41154093530126
 21
4.393173107141588
 31
0.0
  0
LINE
  5
3178
102
{ACAD_REACTORS
330
3253
102
}
330
A
100
AcDbEntity
  8
0
 62
   253
370
    13
100
AcDbLine
 10
29.41154093530126
 20
4.393173107141588
 30
0.0
 11
29.66543023113096
 21
7.271733427294631
 31
0.0
  0
LINE
  5
318A
102
{ACAD_REACTORS
330
3252
102
}
330
A
100
AcDbEntity
  8
0
 62
   253
370
    13
100
AcDbLine
 10
-1.761053839177236
 20
55.49807334286026
 30
0.0
 11
-1.761053839177236
 21
60.49318160545229
 31
0.0
  0
LINE
  5
318B
102
{ACAD_REACTORS
330
3252
102
}
330
A
100
AcDbEntity
  8
0
 62
   253
370
    13
100
AcDbLine
 10
-6.756162101769263
 20
60.49318160545229
 30
0.0
 11
-6.756162101769263
 21
55.49807334286026
 31
0.0
  0
LINE
  5
318C
102
{ACAD_REACTORS
330
3252
102
}
330
A
100
AcDbEntity
  8
0
 62
   253
370
    13
100
AcDbLine
 10
-1.559871547773553
 20
55.49807334286026
 30
0.0
 11
-8.841016943507696
 21
55.49807334286026
 31
0.0
  0
LINE
  5
3191
102
{ACAD_REACTORS
330
3252
102
}
330
A
100
AcDbEntity
  8
0
 62
   253
370
    13
100
AcDbLine
 10
-1.761053839177236
 20
60.49318160545229
 30
0.0
 11
-6.756162101769263
 21
60.49318160545229
 31
0.0
  0
LINE
  5
319C
102
{ACAD_REACTORS
330
3253
102
}
330
A
100
AcDbEntity
  8
0
 62
   253
370
    13
100
AcDbLine
 10
34.4063047076683
 20
45.26383789211971
 30
0.0
 11
33.97190253393528
 21
40.2687296295276
 31
0.0
  0
LINE
  5
31A0
102
{ACAD_REACTORS
330
3253
102
}
330
A
100
AcDbEntity
  8
0
 62
   253
370
    13
100
AcDbLine
 10
31.12572429493285
 20
7.726116034078014
 30
0.0
 11
32.39585975453126
 21
22.2667039413709
 31
0.0
  0
LINE
  5
31A6
102
{ACAD_REACTORS
330
3253
102
}
330
A
100
AcDbEntity
  8
0
 62
   253
370
    13
100
AcDbLine
 10
33.27396533807244
 20
32.2675996635302
 30
0.0
 11
33.31702661619821
 21
32.76573252888937
 31
0.0
  0
LINE
  5
31A9
102
{ACAD_REACTORS
330
3253
102
}
330
A
100
AcDbEntity
  8
0
 62
   253
370
    13
100
AcDbLine
 10
20.14096449015542
 20
40.2687296295276
 30
0.0
 11
33.97190253393528
 21
40.2687296295276
 31
0.0
  0
LINE
  5
31AA
102
{ACAD_REACTORS
330
3253
102
}
330
A
100
AcDbEntity
  8
0
 62
   253
370
    13
100
AcDbLine
 10
33.31633763574818
 20
32.76573252888937
 30
0.0
 11
20.14096449015542
 21
32.76573252888937
 31
0.0
  0
LINE
  5
31AB
102
{ACAD_REACTORS
330
3253
102
}
330
A
100
AcDbEntity
  8
0
 62
   253
370
    13
100
AcDbLine
 10
20.14096449015542
 20
34.26839889036708
 30
0.0
 11
33.44276554832553
 21
34.26839889036708
 31
0.0
  0
LINE
  5
31AC
102
{ACAD_REACTORS
330
3253
102
}
330
A
100
AcDbEntity
  8
0
 62
   253
370
    13
100
AcDbLine
 10
33.44345452877557
 20
34.26839889036708
 30
0.0
 11
33.31633763574818
 21
32.76573252888937
 31
0.0
  0
LINE
  5
31AD
102
{ACAD_REACTORS
330
3253
102
}
330
A
100
AcDbEntity
  8
0
 62
   253
370
    13
100
AcDbLine
 10
33.97259151438531
 20
40.2687296295276
 30
0.0
 11
33.44345452877557
 21
34.26839889036708
 31
0.0
  0
LINE
  5
31B1
102
{ACAD_REACTORS
330
3253
102
}
330
A
100
AcDbEntity
  8
0
 62
   253
370
    13
100
AcDbLine
 10
34.03597771578647
 20
47.26394813850655
 30
0.0
 11
20.64874308181481
 21
47.26394813850655
 31
0.0
  0
LINE
  5
31B2
102
{ACAD_REACTORS
330
3253
102
}
330
A
100
AcDbEntity
  8
0
 62
   253
370
    13
100
AcDbLine
 10
20.14096449015542
 20
45.26383789211971
 30
0.0
 11
34.4063047076683
 21
45.26383789211971
 31
0.0
  0
LINE
  5
31B3
102
{ACAD_REACTORS
330
3253
102
}
330
A
100
AcDbEntity
  8
0
 62
   253
370
    13
100
AcDbLine
 10
34.4063047076683
 20
45.26383789211971
 30
0.0
 11
34.53342160069569
 21
46.72413195592153
 31
0.0
  0
LINE
  5
3344
330
A
100
AcDbEntity
  8
0
 62
     0
370
    13
100
AcDbLine
 10
-0.553610893500128
 20
-26.67061885683175
 30
0.0
 11
-0.5535911296923289
 21
-31.68625408602574
 31
0.0
  0
LINE
  5
3345
330
A
100
AcDbEntity
  8
0
 62
     0
370
    13
100
AcDbLine
 10
24.44638910669396
 20
-26.67061885683175
 30
0.0
 11
24.4464095552368
 21
-31.86002531761677
 31
0.0
  0
ENDSEC
  0
SECTION
  2
OBJECTS
  0
DICTIONARY
  5
19
330
0
100
AcDbDictionary
281
     1
  3
ACAD_GROUP
350
1A
  3
ACAD_IMAGE_VARS
350
117F
  3
ACAD_LAYOUT
350
1E
  3
ACAD_MLINESTYLE
350
1B
  3
ACAD_PLOTSETTINGS
350
22
  3
ACAD_PLOTSTYLENAME
350
1F
  3
ACAD_WIPEOUT_VARS
350
23
  0
DICTIONARY
  5
227A
330
2
100
AcDbDictionary
280
     1
281
     1
  3
ACAD_LAYERFILTERS
360
227B
  0
DICTIONARY
  5
1A
102
{ACAD_REACTORS
330
19
102
}
330
19
100
AcDbDictionary
281
     1
  3
*A1
350
2D1C
  3
*A2
350
3049
  3
*A3
350
304A
  3
*A4
350
304B
  3
*A5
350
324F
  3
*A6
350
3250
  3
*A7
350
3251
  3
*A8
350
3252
  3
*A9
350
3253
  3
*A10
350
3254
  3
*A11
350
2D9A
  3
*A12
350
2E1E
  3
*A13
350
2E37
  3
*A14
350
2EDE
  3
*A15
350
2EDF
  3
*A16
350
2EE0
  3
*A17
350
2EE4
  3
*A18
350
2F08
  0
RASTERVARIABLES
  5
117F
102
{ACAD_REACTORS
330
19
102
}
330
19
100
AcDbRasterVariables
 90
        0
 70
     1
 71
     1
 72
     0
  0
DICTIONARY
  5
1E
102
{ACAD_REACTORS
330
19
102
}
330
19
100
AcDbDictionary
281
     1
  3
Layout1
350
21
  3
Model
350
20
  0
DICTIONARY
  5
1B
102
{ACAD_REACTORS
330
19
102
}
330
19
100
AcDbDictionary
281
     1
  3
Standard
350
1C
  0
DICTIONARY
  5
22
102
{ACAD_REACTORS
330
19
102
}
330
19
100
AcDbDictionary
281
     1
  0
ACDBDICTIONARYWDFLT
  5
1F
102
{ACAD_REACTORS
330
19
102
}
330
19
100
AcDbDictionary
281
     1
  3
Normal
350
1D
100
AcDbDictionaryWithDefault
340
1D
  0
ACAD_PROXY_OBJECT
  5
23
330
19
100
AcDbProxyObject
 90
      499
 91
      521
 95
   393239
 70
     0
 93
       10
310
4044
 94
        0
  0
DICTIONARY
  5
227B
102
{ACAD_REACTORS
330
227A
102
}
330
227A
100
AcDbDictionary
280
     1
281
     1
  3
-100
360
227C
  3
-50
360
227D
  3
-ben
360
227E
  3
-H
360
227F
  3
-T
360
2280
  3
$
360
2281
  3
$0$
360
2282
  3
0
360
2283
  3
0-
360
2284
  3
00
360
2285
  3
01
360
2286
  3
01KUTAI
360
2287
  3
01全体計画平面図
360
2288
  3
02現況平面図
360
2289
  3
03撤去平面図
360
228A
  3
04造成平面図
360
228B
  3
05
360
228C
  3
05施設平面図
360
228D
  3
06
360
228E
  3
06siki
360
228F
  3
06siki2
360
2290
  3
06排水平面図
360
2291
  3
07
360
2292
  3
07給水平面図
360
2293
  3
0割付平面図
360
2294
  3
0潅水平面
360
2295
  3
0計画平面
360
2296
  3
0高木植栽
360
2297
  3
0施設平面
360
2298
  3
0床内
360
2299
  3
0床壁
360
229A
  3
0照明配置図
360
229B
  3
0詳細図
360
229C
  3
0植栽基盤
360
229D
  3
0全体工区区分図
360
229E
  3
0総合図off
360
229F
  3
0総合図枠
360
22A0
  3
0低木
360
22A1
  3
0排水平面
360
22A2
  3
0平詳枠
360
22A3
  3
0擁壁平面図
360
22A4
  3
1
360
22A5
  3
10
360
22A6
  3
100
360
22A7
  3
10植栽平面図
360
22A8
  3
11
360
22A9
  3
1111
360
22AA
  3
11寸法図
360
22AB
  3
12
360
22AC
  3
19
360
22AD
  3
１Ｆ床伏OFF
360
22AE
  3
1階
360
22AF
  3
1床
360
22B0
  3
1芯
360
22B1
  3
1芯線
360
22B2
  3
20
360
22B3
  3
21
360
22B4
  3
250
360
22B5
  3
2fmiage
360
22B6
  3
2躯体
360
22B7
  3
2断面
360
22B8
  3
2壁
360
22B9
  3
300
360
22BA
  3
32
360
22BB
  3
333
360
22BC
  3
37
360
22BD
  3
3D
360
22BE
  3
3開口
360
22BF
  3
3見掛り
360
22C0
  3
3天井内
360
22C1
  3
41
360
22C2
  3
4仕上げ
360
22C3
  3
4天井
360
22C4
  3
5
360
22C5
  3
50
360
22C6
  3
50off
360
22C7
  3
51-52
360
22C8
  3
555
360
22C9
  3
5寸法
360
22CA
  3
5文字
360
22CB
  3
6
360
22CC
  3
66-躯体図
360
22CD
  3
66躯体図
360
22CE
  3
6記号
360
22CF
  3
6文字
360
22D0
  3
6保留
360
22D1
  3
767
360
22D2
  3
767SE13-0...$
360
22D3
  3
767SE13-07-99$0$
360
22D4
  3
7記号
360
22D5
  3
8
360
22D6
  3
8寸法
360
22D7
  3
8設備
360
22D8
  3
9文字
360
22D9
  3
9目地
360
22DA
  3
A
360
22DB
  3
A-
360
22DC
  3
A(枠･表)を表示
360
22DD
  3
A01
360
22DE
  3
A1.DEMO-KEY NOTE
360
22DF
  3
A2. CONS-KEY NOTE
360
22E0
  3
A21
360
22E1
  3
A3
360
22E2
  3
A3. RCP-LAYER
360
22E3
  3
A3D. RCP_DEMO-KEY NOTE
360
22E4
  3
A4. P&T- KEY NOTE
360
22E5
  3
A4D. EL_DEMO-KEY NOTE
360
22E6
  3
A5. FINISH-KEY NOTE
360
22E7
  3
A6. FURN-KEY NOTE
360
22E8
  3
aa
360
22E9
  3
aaa
360
22EA
  3
AB棟
360
22EB
  3
ＡＢ棟
360
22EC
  3
ACTIVE
360
22ED
  3
ACTIVE2
360
22EE
  3
ALC
360
22EF
  3
ALL
360
22F0
  3
all選択
360
22F1
  3
AMENAGEMENT
360
22F2
  3
AQ
360
22F3
  3
ARBOL
360
22F4
  3
AREA
360
22F5
  3
AREA-SG
360
22F6
  3
AS1
360
22F7
  3
aハッチング
360
22F8
  3
A空調
360
22F9
  3
B
360
22FA
  3
B(基準)を表示
360
22FB
  3
B2
360
22FC
  3
B3
360
22FD
  3
BAL
360
22FE
  3
baru
360
22FF
  3
baru2
360
2300
  3
BASE
360
2301
  3
bb
360
2302
  3
bbbb
360
2303
  3
beam
360
2304
  3
blocchi
360
2305
  3
blue
360
2306
  3
BSM
360
2307
  3
b階段
360
2308
  3
B電気
360
2309
  3
c
360
230A
  3
c-block
360
230B
  3
c-block-2
360
230C
  3
C(寸･文･記)を表示
360
230D
  3
cajetin
360
230E
  3
cc
360
230F
  3
CD06
360
2310
  3
ＣＤ棟
360
2311
  3
ceiling
360
2312
  3
CEILINGS XREF
360
2313
  3
CEL
360
2314
  3
che
360
2315
  3
chika
360
2316
  3
CLG
360
2317
  3
COL
360
2318
  3
cold beam
360
2319
  3
colu
360
231A
  3
com
360
231B
  3
con
360
231C
  3
CRG
360
231D
  3
cyan
360
231E
  3
C衛生
360
231F
  3
C街区関連
360
2320
  3
c雑金物
360
2321
  3
C打計画図
360
2322
  3
D
360
2323
  3
D(表現補助)を表示
360
2324
  3
Ｄ・墓地　施設平面
360
2325
  3
D16
360
2326
  3
DASHED
360
2327
  3
DASHED2
360
2328
  3
DEMO
360
2329
  3
DEMOLITION
360
232A
  3
detail
360
232B
  3
details
360
232C
  3
DHED
360
232D
  3
Dim
360
232E
  3
disegno
360
232F
  3
DOORS
360
2330
  3
DR
360
2331
  3
DT
360
2332
  3
d外構
360
2333
  3
Ｄ街区低木
360
2334
  3
D割付平面
360
2335
  3
Ｄ給水設備
360
2336
  3
Ｄ計画高平面
360
2337
  3
Ｄ計画平面
360
2338
  3
Ｄ工事区分
360
2339
  3
Ｄ高木植栽
360
233A
  3
Ｄ施設平面
360
233B
  3
Ｄ照明設備
360
233C
  3
Ｄ低木
360
233D
  3
Ｄ電気設備
360
233E
  3
Ｄ土壌改良
360
233F
  3
Ｄ排水平面
360
2340
  3
D舗装平面
360
2341
  3
Ｄ墓地施設平面
360
2342
  3
D墓地排水
360
2343
  3
E
360
2344
  3
E(点線系)を表示
360
2345
  3
EEEE
360
2346
  3
EISEI
360
2347
  3
elec
360
2348
  3
ERAS1F
360
2349
  3
existing
360
234A
  3
Exit
360
234B
  3
F
360
234C
  3
F(断面)を表示
360
234D
  3
F1
360
234E
  3
face4
360
234F
  3
FC_CLADDING
360
2350
  3
FENCE
360
2351
  3
FF
360
2352
  3
FH
360
2353
  3
FILTER1
360
2354
  3
fini
360
2355
  3
finish
360
2356
  3
FIRE
360
2357
  3
fixture
360
2358
  3
fl
360
2359
  3
Floor
360
235A
  3
FLOOR PLAN
360
235B
  3
fr
360
235C
  3
freeze
360
235D
  3
FRZ
360
235E
  3
Fugou
360
235F
  3
FUGOU-TATEGU
360
2360
  3
FUKI
360
2361
  3
FURN
360
2362
  3
FURNITURE
360
2363
  3
FUSE_00
360
2364
  3
G
360
2365
  3
G(開口)を表示
360
2366
  3
GAIKOU
360
2367
  3
gel
360
2368
  3
gen
360
2369
  3
gondora
360
236A
  3
green
360
236B
  3
GRID
360
236C
  3
gris
360
236D
  3
H
360
236E
  3
H-
360
236F
  3
H-SIN
360
2370
  3
H(見掛)を表示
360
2371
  3
HA
360
2372
  3
haikin
360
2373
  3
HAISEN
360
2374
  3
HARI
360
2375
  3
hasira
360
2376
  3
HATCH
360
2377
  3
HCP
360
2378
  3
HEISHO
360
2379
  3
HEISHO2
360
237A
  3
HIDDEN
360
237B
  3
HOJO
360
237C
  3
hollywood
360
237D
  3
HOTEL
360
237E
  3
huse
360
237F
  3
HYOKI
360
2380
  3
HYOUKI
360
2381
  3
i
360
2382
  3
I(二次部材系))を表示
360
2383
  3
I2
360
2384
  3
i2cl
360
2385
  3
i5
360
2386
  3
i9
360
2387
  3
in
360
2388
  3
INSERT図
360
2389
  3
ISSUE
360
238A
  3
J
360
238B
  3
K
360
238C
  3
KABE
360
238D
  3
KABESHIN
360
238E
  3
KAGU
360
238F
  3
key
360
2390
  3
KI
360
2391
  3
KIGO
360
2392
  3
KIJUN
360
2393
  3
kiso
360
2394
  3
KSIN
360
2395
  3
kui
360
2396
  3
KUTAI
360
2397
  3
L
360
2398
  3
LEGEND
360
2399
  3
LGS
360
239A
  3
light
360
239B
  3
LIST
360
239C
  3
lixo
360
239D
  3
LOCK
360
239E
  3
LTA
360
239F
  3
Ｌ建具
360
23A0
  3
M
360
23A1
  3
MA
360
23A2
  3
MACONNERIE
360
23A3
  3
magenta
360
23A4
  3
magenta-bleu
360
23A5
  3
maji
360
23A6
  3
MAJIKIRI
360
23A7
  3
marco
360
23A8
  3
MB
360
23A9
  3
meji
360
23AA
  3
merceologico
360
23AB
  3
MILL
360
23AC
  3
MILLWORK
360
23AD
  3
miwa
360
23AE
  3
MOJI
360
23AF
  3
MOJI100
360
23B0
  3
N
360
23B1
  3
N-
360
23B2
  3
NAM
360
23B3
  3
NEW
360
23B4
  3
NHK
360
23B5
  3
no xref
360
23B6
  3
note
360
23B7
  3
NUM
360
23B8
  3
NUMB
360
23B9
  3
O
360
23BA
  3
OF
360
23BB
  3
OFF
360
23BC
  3
on
360
23BD
  3
option 1
360
23BE
  3
option 2
360
23BF
  3
OUTLINE
360
23C0
  3
P
360
23C1
  3
pa
360
23C2
  3
PALFOND
360
23C3
  3
PAT
360
23C4
  3
PC
360
23C5
  3
PISO
360
23C6
  3
PLAN
360
23C7
  3
PLMB
360
23C8
  3
plot
360
23C9
  3
PLUMB
360
23CA
  3
PNL
360
23CB
  3
power
360
23CC
  3
PRT
360
23CD
  3
q
360
23CE
  3
R
360
23CF
  3
rack
360
23D0
  3
RC
360
23D1
  3
RCP
360
23D2
  3
rm
360
23D3
  3
RMTAGS
360
23D4
  3
RNUM
360
23D5
  3
ROOM
360
23D6
  3
roomno
360
23D7
  3
rouge
360
23D8
  3
rtkl
360
23D9
  3
S
360
23DA
  3
saciencewold
360
23DB
  3
SETUBI
360
23DC
  3
SHITU
360
23DD
  3
SHITUMEI
360
23DE
  3
SIAG
360
23DF
  3
SIAG-N
360
23E0
  3
SIAG3
360
23E1
  3
sin
360
23E2
  3
Sinm
360
23E3
  3
SITA
360
23E4
  3
siyah
360
23E5
  3
SS
360
23E6
  3
ST
360
23E7
  3
STA
360
23E8
  3
stairs
360
23E9
  3
SUGA5
360
23EA
  3
SUNP
360
23EB
  3
SUNP100
360
23EC
  3
T
360
23ED
  3
TAKASA
360
23EE
  3
TATE161
360
23EF
  3
TATEGU
360
23F0
  3
ten
360
23F1
  3
TENJYOU
360
23F2
  3
TENJYOUNAI
360
23F3
  3
test
360
23F4
  3
text
360
23F5
  3
thaw
360
23F6
  3
TITL
360
23F7
  3
tnjyou
360
23F8
  3
tori
360
23F9
  3
TORISHIN
360
23FA
  3
tr
360
23FB
  3
TSIN
360
23FC
  3
TXT
360
23FD
  3
UNFREEZ
360
23FE
  3
UNROCK
360
23FF
  3
wada
360
2400
  3
waku
360
2401
  3
X
360
2402
  3
X(敷地)を表示
360
2403
  3
xref
360
2404
  3
YAJI
360
2405
  3
yellow
360
2406
  3
YUKA
360
2407
  3
yその他
360
2408
  3
Z
360
2409
  3
ZATU
360
240A
  3
z図枠
360
240B
  3
к
360
240C
  3
перегородки
360
240D
  3
イベント給水
360
240E
  3
ガラス
360
240F
  3
キ-プラン
360
2410
  3
キープラン
360
2411
  3
さーくる
360
2412
  3
シェルター
360
2413
  3
すべてに反映
360
2414
  3
スロープ
360
2415
  3
タイル割付平面図
360
2416
  3
ﾃｷｽﾄのみ表示
360
2417
  3
ハッチング
360
2418
  3
フリーズ
360
2419
  3
フリーズof
360
241A
  3
ﾌﾘｰｽﾞ画層非表示
360
241B
  3
ﾌﾘｰｽﾞ画面非表示
360
241C
  3
ﾌﾘｰｽﾞ解除
360
241D
  3
フリーズ解除
360
241E
  3
ﾌﾟﾚｾﾞﾝ枠
360
241F
  3
マーク
360
2420
  3
ﾒｲﾝﾌﾟﾗｻﾞ
360
2421
  3
レベル
360
2422
  3
ロック
360
2423
  3
一括非表示
360
2424
  3
一般図
360
2425
  3
印刷
360
2426
  3
荏原機器
360
2427
  3
荏原機器基礎
360
2428
  3
衛生設備図
360
2429
  3
黄色
360
242A
  3
下階
360
242B
  3
下地
360
242C
  3
外構
360
242D
  3
外部参照－建築
360
242E
  3
外部参照除く
360
242F
  3
割り付け平面図
360
2430
  3
割付平面図
360
2431
  3
潅水平面
360
2432
  3
基
360
2433
  3
基準
360
2434
  3
基準階
360
2435
  3
基礎OFF
360
2436
  3
基礎伏
360
2437
  3
基礎伏図
360
2438
  3
基盤改良平面図
360
2439
  3
既存杭
360
243A
  3
機器
360
243B
  3
機器基礎
360
243C
  3
記号
360
243D
  3
給水設備平面図
360
243E
  3
給水平面
360
243F
  3
区画
360
2440
  3
躯体
360
2441
  3
躯体図
360
2442
  3
空調jv
360
2443
  3
空調設備図
360
2444
  3
郡川
360
2445
  3
型枠計画図
360
2446
  3
計画高平面図
360
2447
  3
計画平面
360
2448
  3
計画平面図
360
2449
  3
劇場ﾌﾟﾗｻﾞ
360
244A
  3
劇場棟
360
244B
  3
建具
360
244C
  3
建築接地図
360
244D
  3
見上げ
360
244E
  3
現在非表示画層
360
244F
  3
光天井
360
2450
  3
公園
360
2451
  3
工事区分図
360
2452
  3
工事区分図AB
360
2453
  3
工事区分図CD
360
2454
  3
高さ
360
2455
  3
高木植栽平面
360
2456
  3
高木平面図
360
2457
  3
座席のみ
360
2458
  3
作業
360
2459
  3
参考
360
245A
  3
山止根切計画図
360
245B
  3
仕
360
245C
  3
仕上
360
245D
  3
仕上図
360
245E
  3
使用中
360
245F
  3
施設配置図
360
2460
  3
施設平面
360
2461
  3
施設平面図
360
2462
  3
紫
360
2463
  3
床伏図
360
2464
  3
昇降機
360
2465
  3
照明
360
2466
  3
照明Ｃ１
360
2467
  3
照明Ｃ２
360
2468
  3
照明配置図
360
2469
  3
詳細
360
246A
  3
詳細図
360
246B
  3
上階躯体図
360
246C
  3
植栽
360
246D
  3
植栽基盤平面
360
246E
  3
植栽現況
360
246F
  3
植栽高木AB
360
2470
  3
植栽高木CD
360
2471
  3
植栽低木AB
360
2472
  3
植栽低木ＣＤ
360
2473
  3
色番号8
360
2474
  3
申請用
360
2475
  3
芯
360
2476
  3
芯関係
360
2477
  3
水
360
2478
  3
水色
360
2479
  3
寸法
360
247A
  3
製作
360
247B
  3
製作-躯体
360
247C
  3
製作-建築
360
247D
  3
製作-昇降機
360
247E
  3
青
360
247F
  3
設備
360
2480
  3
設備プロット
360
2481
  3
全階平面図
360
2482
  3
総合仮設図
360
2483
  3
総合図
360
2484
  3
足場計画図
360
2485
  3
地下埋設
360
2486
  3
中野
360
2487
  3
低木植栽平面
360
2488
  3
低木平面図
360
2489
  3
鉄骨
360
248A
  3
鉄骨建方計画図
360
248B
  3
天井インサート図
360
248C
  3
天井総合図
360
248D
  3
天井伏図
360
248E
  3
天伏
360
248F
  3
電気設備図
360
2490
  3
土壌改良
360
2491
  3
土木計画平面図
360
2492
  3
道路
360
2493
  3
道路関係図
360
2494
  3
排水
360
2495
  3
排水設備平面図
360
2496
  3
排水平面
360
2497
  3
配管
360
2498
  3
非表示
360
2499
  3
非表示ﾚｲﾔｰ
360
249A
  3
表示
360
249B
  3
表示・非表示
360
249C
  3
表示2
360
249D
  3
分割枠
360
249E
  3
平面詳細図
360
249F
  3
平面図
360
24A0
  3
平面総合図
360
24A1
  3
変更分
360
24A2
  3
舗装平面
360
24A3
  3
舗装平面C1
360
24A4
  3
舗装平面C2
360
24A5
  3
舗装平面図
360
24A6
  3
法規チェック－区画
360
24A7
  3
法規チェック－範囲
360
24A8
  3
鳳文字入力
360
24A9
  3
防災
360
24AA
  3
名称
360
24AB
  3
面積
360
24AC
  3
擁壁平面図
360
24AD
  3
用途色塗
360
24AE
  3
立面図
360
24AF
  3
梁
360
24B0
  3
緑
360
24B1
  0
GROUP
  5
2D1C
102
{ACAD_REACTORS
330
1A
102
}
330
1A
100
AcDbGroup
300

 70
     1
 71
     1
340
28E9
340
2187
340
2915
340
2916
340
290B
340
290C
340
290D
340
290E
340
2927
340
2926
340
21FF
340
21FC
340
21FB
340
2D15
340
2D14
340
2D13
340
2D12
340
2D11
340
2D10
340
2D0F
340
2D0E
340
2D0D
340
2D0C
340
21DD
340
2CFC
340
2CFD
340
2CFE
340
2CFF
340
2D00
340
2D01
340
2D02
340
2D03
340
2D04
340
2D05
340
21D2
340
2917
340
28F0
340
28F1
340
21B5
340
2CD3
340
2CD5
340
2CD7
340
28B4
340
2CD1
340
219F
340
21A0
340
28CB
340
21C7
340
28CD
340
28D5
340
28D7
340
28C5
340
28C1
340
28E0
340
28DC
340
2923
340
2922
340
2921
340
2920
340
291F
340
291E
340
291D
340
291C
340
291B
340
291A
340
2919
340
2918
340
2914
340
2913
340
2912
340
2911
340
2910
340
290F
340
2909
340
2908
340
2907
340
2906
340
2905
340
2904
340
2903
340
2902
340
2901
340
2900
340
28FF
340
28FE
340
28FD
340
28FC
340
28FB
340
28FA
340
28F9
340
28F8
340
28F7
340
28F6
340
28F5
340
28F4
340
28F3
340
28F2
340
28EF
340
28EE
340
28EB
340
28EA
340
28E8
340
28E7
340
28E6
340
28E5
340
28E4
340
28E3
340
28DF
340
28DE
340
28DD
340
28D9
340
28D8
340
28D6
340
28D2
340
28D1
340
28D0
340
28CF
340
28CC
340
28CA
340
28C9
340
28C8
340
28C7
340
28C6
340
28C4
340
28C3
340
28C2
340
28C0
340
28BF
340
28BE
340
28BD
340
28BC
340
28BB
340
28BA
340
28B9
340
28B8
340
28B7
340
28B6
340
28B5
340
28B3
340
28B2
340
28B1
340
28B0
340
28AF
340
28AE
340
28AD
340
28AC
340
28AB
340
28AA
340
2207
340
2204
340
2202
340
2200
340
21FE
340
21F0
340
21EC
340
21D1
340
21AF
340
21AE
340
21AB
340
21AA
340
21A9
340
21A8
340
21A6
340
21A4
340
21A3
340
219E
340
219C
340
2198
340
2196
340
2194
340
2192
340
2190
340
218D
340
218B
340
2185
340
2183
340
2164
340
215A
340
214E
340
2188
340
2180
340
21C9
340
2163
340
214D
340
2151
340
28A9
340
2159
340
214F
340
2186
340
2182
340
2184
340
2CD4
340
2CD6
340
2CD2
340
21A1
340
21C2
340
21BD
340
21F1
340
21BC
340
219D
340
219B
340
21E9
340
21C8
340
21BE
340
21CC
340
21B6
340
28DB
340
28DA
340
2162
340
21CE
340
28E2
340
28E1
340
2174
340
21C0
340
21EA
340
217A
340
21E8
340
217E
340
217C
340
2178
340
2176
340
21CA
340
21BF
340
2172
340
2170
340
216E
340
216C
340
21C1
340
216A
340
2205
340
2203
340
2191
340
21CB
340
218F
340
21CD
340
2199
340
2197
340
2195
340
2193
340
218E
340
218C
340
218A
340
2189
340
21D9
340
2166
340
2168
340
21DC
340
2D16
340
2D06
340
21E3
340
21DA
340
21DB
340
2D1B
340
2D07
340
21DE
340
2D1A
340
2D19
340
2D18
340
2D17
340
2D08
340
2D09
340
2D0A
  0
GROUP
  5
3049
102
{ACAD_REACTORS
330
1A
102
}
330
1A
100
AcDbGroup
300

 70
     1
 71
     1
  0
GROUP
  5
304A
102
{ACAD_REACTORS
330
1A
102
}
330
1A
100
AcDbGroup
300

 70
     1
 71
     1
  0
GROUP
  5
304B
102
{ACAD_REACTORS
330
1A
102
}
330
1A
100
AcDbGroup
300

 70
     1
 71
     1
  0
GROUP
  5
324F
102
{ACAD_REACTORS
330
1A
102
}
330
1A
100
AcDbGroup
300

 70
     1
 71
     1
  0
GROUP
  5
3250
102
{ACAD_REACTORS
330
1A
102
}
330
1A
100
AcDbGroup
300

 70
     1
 71
     1
  0
GROUP
  5
3251
102
{ACAD_REACTORS
330
1A
102
}
330
1A
100
AcDbGroup
300

 70
     1
 71
     1
  0
GROUP
  5
3252
102
{ACAD_REACTORS
330
1A
102
}
330
1A
100
AcDbGroup
300

 70
     1
 71
     1
340
3062
340
3061
340
3060
340
305F
340
305E
340
305D
340
305C
340
3146
340
3162
340
3163
340
3161
340
3160
340
3191
340
318C
340
318B
340
318A
  0
GROUP
  5
3253
102
{ACAD_REACTORS
330
1A
102
}
330
1A
100
AcDbGroup
300

 70
     1
 71
     1
340
305B
340
305A
340
3059
340
3058
340
3057
340
3056
340
3055
340
3054
340
3053
340
3052
340
3051
340
3050
340
304F
340
304E
340
304D
340
304C
340
316C
340
316F
340
31A0
340
3178
340
3173
340
3174
340
3177
340
3176
340
3175
340
31AD
340
31AB
340
31AA
340
31A6
340
31AC
340
31B2
340
31A9
340
31B1
340
31B3
340
319C
  0
GROUP
  5
3254
102
{ACAD_REACTORS
330
1A
102
}
330
1A
100
AcDbGroup
300

 70
     1
 71
     1
340
3145
340
3144
340
3143
  0
GROUP
  5
2D9A
102
{ACAD_REACTORS
330
1A
102
}
330
1A
100
AcDbGroup
300

 70
     1
 71
     1
340
2D67
340
2D61
340
2D60
340
2D5E
340
2D5F
340
2D66
340
2D6E
340
2D72
340
2D63
340
2D62
340
2D6F
340
2D70
340
2D71
340
2D79
340
2D76
340
2D75
340
2D74
340
2D68
340
2D69
340
2D7E
340
2D8F
340
2D83
340
2D85
340
2D97
340
2D93
340
2D94
340
2D87
340
2D86
340
2D89
340
2D8C
340
2D8D
340
2D98
340
2D8E
340
2D96
340
2D99
  0
GROUP
  5
2E1E
102
{ACAD_REACTORS
330
1A
102
}
330
1A
100
AcDbGroup
300

 70
     1
 71
     1
340
2DC8
340
2DDA
340
2DE8
340
2DE7
340
2DEA
340
2DEB
340
2DED
340
2DC0
340
2DC6
340
2DC5
340
2DBD
340
2DBE
340
2DBF
340
2DD0
340
2DD1
340
2DD7
340
2DD6
340
2DEC
340
2DE2
340
2DD9
340
2DD8
340
2DCF
340
2DC7
340
2DB9
340
2DB8
340
2DF4
340
2E1B
340
2E13
340
2E1C
340
2E19
340
2DF7
340
2DFC
340
2DF2
340
2E18
340
2E17
340
2E14
340
2E15
340
2DFB
340
2E0B
340
2E0A
340
2E08
340
2E09
340
2E07
340
2E1D
340
2DFE
340
2E03
340
2E01
340
2E00
340
2E02
  0
GROUP
  5
2E37
102
{ACAD_REACTORS
330
1A
102
}
330
1A
100
AcDbGroup
300

 70
     1
 71
     1
  0
GROUP
  5
2EDE
102
{ACAD_REACTORS
330
1A
102
}
330
1A
100
AcDbGroup
300

 70
     1
 71
     1
  0
GROUP
  5
2EDF
102
{ACAD_REACTORS
330
1A
102
}
330
1A
100
AcDbGroup
300

 70
     1
 71
     1
  0
GROUP
  5
2EE0
102
{ACAD_REACTORS
330
1A
102
}
330
1A
100
AcDbGroup
300

 70
     1
 71
     1
  0
GROUP
  5
2EE4
102
{ACAD_REACTORS
330
1A
102
}
330
1A
100
AcDbGroup
300

 70
     1
 71
     1
  0
GROUP
  5
2F08
102
{ACAD_REACTORS
330
1A
102
}
330
1A
100
AcDbGroup
300

 70
     1
 71
     1
  0
LAYOUT
  5
21
102
{ACAD_REACTORS
330
1E
102
}
330
1E
100
AcDbPlotSettings
  1

  2

  4

  6

 40
0.0
 41
0.0
 42
0.0
 43
0.0
 44
0.0
 45
0.0
 46
0.0
 47
0.0
 48
0.0
 49
0.0
140
0.0
141
0.0
142
1.0
143
1.0
 70
     0
 72
     0
 73
     0
 74
     0
  7

 75
     0
147
1.0
148
0.0
149
0.0
100
AcDbLayout
  1
Layout1
 70
     0
 71
     1
 10
0.0
 20
0.0
 11
12.0
 21
9.0
 12
0.0
 22
0.0
 32
0.0
 14
1.000000000000000E+20
 24
1.000000000000000E+20
 34
1.000000000000000E+20
 15
-1.000000000000000E+20
 25
-1.000000000000000E+20
 35
-1.000000000000000E+20
146
0.0
 13
0.0
 23
0.0
 33
0.0
 16
1.0
 26
0.0
 36
0.0
 17
0.0
 27
1.0
 37
0.0
 76
     0
330
B
  0
LAYOUT
  5
20
102
{ACAD_REACTORS
330
1E
102
}
330
1E
100
AcDbPlotSettings
  1

  2

  4

  6

 40
0.0
 41
0.0
 42
0.0
 43
0.0
 44
0.0
 45
0.0
 46
0.0
 47
0.0
 48
0.0
 49
0.0
140
0.0
141
0.0
142
1.0
143
1.0
 70
  1024
 72
     0
 73
     0
 74
     0
  7

 75
     0
147
1.0
148
0.0
149
0.0
100
AcDbLayout
  1
Model
 70
     0
 71
     0
 10
0.0
 20
0.0
 11
0.0
 21
0.0
 12
0.0
 22
0.0
 32
0.0
 14
0.0
 24
0.0
 34
0.0
 15
0.0
 25
0.0
 35
0.0
146
0.0
 13
0.0
 23
0.0
 33
0.0
 16
0.0
 26
0.0
 36
0.0
 17
0.0
 27
0.0
 37
0.0
 76
     0
330
A
  0
MLINESTYLE
  5
1C
102
{ACAD_REACTORS
330
1B
102
}
330
1B
100
AcDbMlineStyle
  2
STANDARD
 70
     0
  3

 62
     0
 51
90.0
 52
90.0
 71
     2
 49
0.5
 62
   256
  6
BYLAYER
 49
-0.5
 62
   256
  6
BYLAYER
  0
ACDBPLACEHOLDER
  5
1D
102
{ACAD_REACTORS
330
1F
102
}
330
1F
  0
XRECORD
  5
227C
102
{ACAD_REACTORS
330
227B
102
}
330
227B
100
AcDbXrecord
280
     1
  1
-100
  1
*-100
  1
*
  1
*
 70
     0
  1
*
  1
*
  0
XRECORD
  5
227D
102
{ACAD_REACTORS
330
227B
102
}
330
227B
100
AcDbXrecord
280
     1
  1
-50
  1
*-50
  1
*
  1
*
 70
     0
  1
*
  1
*
  0
XRECORD
  5
227E
102
{ACAD_REACTORS
330
227B
102
}
330
227B
100
AcDbXrecord
280
     1
  1
-ben
  1
ben*
  1
*
  1
*
 70
     0
  1
*
  1
*
  0
XRECORD
  5
227F
102
{ACAD_REACTORS
330
227B
102
}
330
227B
100
AcDbXrecord
280
     1
  1
-H
  1
00*,01*,02*,05*,1*,2*,3*,4*,5*,6*,8*
  1
*
  1
*
 70
     0
  1
*
  1
*
  0
XRECORD
  5
2280
102
{ACAD_REACTORS
330
227B
102
}
330
227B
100
AcDbXrecord
280
     1
  1
-T
  1
00*,01*,03*,05*,1*,20*,21*,22*,23*,24*,25*,26*,27*,29*,2a*,3*,4*,7*,9*
  1
*
  1
*
 70
     0
  1
*
  1
*
  0
XRECORD
  5
2281
102
{ACAD_REACTORS
330
227B
102
}
330
227B
100
AcDbXrecord
280
     1
  1
$
  1
*$0$*
  1
*
  1
*
 70
     0
  1
*
  1
*
  0
XRECORD
  5
2282
102
{ACAD_REACTORS
330
227B
102
}
330
227B
100
AcDbXrecord
280
     1
  1
$0$
  1
$0$*
  1
*
  1
*
 70
     0
  1
*
  1
*
  0
XRECORD
  5
2283
102
{ACAD_REACTORS
330
227B
102
}
330
227B
100
AcDbXrecord
280
     1
  1
0
  1
0*
  1
*
  1
*
 70
     0
  1
*
  1
*
  0
XRECORD
  5
2284
102
{ACAD_REACTORS
330
227B
102
}
330
227B
100
AcDbXrecord
280
     1
  1
0-
  1
0-*
  1
*
  1
*
 70
     0
  1
*
  1
*
  0
XRECORD
  5
2285
102
{ACAD_REACTORS
330
227B
102
}
330
227B
100
AcDbXrecord
280
     1
  1
00
  1
*-100
  1
*
  1
*
 70
     0
  1
*
  1
*
  0
XRECORD
  5
2286
102
{ACAD_REACTORS
330
227B
102
}
330
227B
100
AcDbXrecord
280
     1
  1
01
  1
0*a*
  1
*
  1
*
 70
     0
  1
*
  1
*
  0
XRECORD
  5
2287
102
{ACAD_REACTORS
330
227B
102
}
330
227B
100
AcDbXrecord
280
     1
  1
01KUTAI
  1
01KUTAI
  1
*
  1
*
 70
     0
  1
*
  1
*
  0
XRECORD
  5
2288
102
{ACAD_REACTORS
330
227B
102
}
330
227B
100
AcDbXrecord
280
     1
  1
01全体計画平面図
  1
00*,02*,0A*
  1
*
  1
*
 70
     0
  1
*
  1
*
  0
XRECORD
  5
2289
102
{ACAD_REACTORS
330
227B
102
}
330
227B
100
AcDbXrecord
280
     1
  1
02現況平面図
  1
00*,01*,0B*
  1
*
  1
*
 70
     0
  1
*
  1
*
  0
XRECORD
  5
228A
102
{ACAD_REACTORS
330
227B
102
}
330
227B
100
AcDbXrecord
280
     1
  1
03撤去平面図
  1
00*,01*,0C*
  1
*
  1
*
 70
     0
  1
*
  1
*
  0
XRECORD
  5
228B
102
{ACAD_REACTORS
330
227B
102
}
330
227B
100
AcDbXrecord
280
     1
  1
04造成平面図
  1
00*,02計*,0D*,03*,01*
  1
*
  1
*
 70
     0
  1
*
  1
*
  0
XRECORD
  5
228C
102
{ACAD_REACTORS
330
227B
102
}
330
227B
100
AcDbXrecord
280
     1
  1
05
  1
*05*
  1
*
  1
*
 70
     0
  1
*
  1
*
  0
XRECORD
  5
228D
102
{ACAD_REACTORS
330
227B
102
}
330
227B
100
AcDbXrecord
280
     1
  1
05施設平面図
  1
00*,02*,0E*,05*
  1
*
  1
*
 70
     0
  1
*
  1
*
  0
XRECORD
  5
228E
102
{ACAD_REACTORS
330
227B
102
}
330
227B
100
AcDbXrecord
280
     1
  1
06
  1
06*
  1
*
  1
*
 70
     0
  1
*
  1
*
  0
XRECORD
  5
228F
102
{ACAD_REACTORS
330
227B
102
}
330
227B
100
AcDbXrecord
280
     1
  1
06siki
  1
06*siki*,sikiti,00waku,*|*
  1
*
  1
*
 70
     0
  1
*
  1
*
  0
XRECORD
  5
2290
102
{ACAD_REACTORS
330
227B
102
}
330
227B
100
AcDbXrecord
280
     1
  1
06siki2
  1
06*siki*,sikiti,00waku,*|*
  1
*
  1
*
 70
     0
  1
*
  1
*
  0
XRECORD
  5
2291
102
{ACAD_REACTORS
330
227B
102
}
330
227B
100
AcDbXrecord
280
     1
  1
06排水平面図
  1
00*,02*,0F*
  1
*
  1
*
 70
     0
  1
*
  1
*
  0
XRECORD
  5
2292
102
{ACAD_REACTORS
330
227B
102
}
330
227B
100
AcDbXrecord
280
     1
  1
07
  1
07*
  1
*
  1
*
 70
     0
  1
*
  1
*
  0
XRECORD
  5
2293
102
{ACAD_REACTORS
330
227B
102
}
330
227B
100
AcDbXrecord
280
     1
  1
07給水平面図
  1
00*,02*,0G*
  1
*
  1
*
 70
     0
  1
*
  1
*
  0
XRECORD
  5
2294
102
{ACAD_REACTORS
330
227B
102
}
330
227B
100
AcDbXrecord
280
     1
  1
0割付平面図
  1
*わ*
  1
*
  1
*
 70
     0
  1
*
  1
*
  0
XRECORD
  5
2295
102
{ACAD_REACTORS
330
227B
102
}
330
227B
100
AcDbXrecord
280
     1
  1
0潅水平面
  1
*三*
  1
*
  1
*
 70
     0
  1
*
  1
*
  0
XRECORD
  5
2296
102
{ACAD_REACTORS
330
227B
102
}
330
227B
100
AcDbXrecord
280
     1
  1
0計画平面
  1
*け*
  1
*
  1
*
 70
     0
  1
*
  1
*
  0
XRECORD
  5
2297
102
{ACAD_REACTORS
330
227B
102
}
330
227B
100
AcDbXrecord
280
     1
  1
0高木植栽
  1
*こ*
  1
*
  1
*
 70
     0
  1
*
  1
*
  0
XRECORD
  5
2298
102
{ACAD_REACTORS
330
227B
102
}
330
227B
100
AcDbXrecord
280
     1
  1
0施設平面
  1
*し*
  1
*
  1
*
 70
     0
  1
*
  1
*
  0
XRECORD
  5
2299
102
{ACAD_REACTORS
330
227B
102
}
330
227B
100
AcDbXrecord
280
     1
  1
0床内
  1
FI-*
  1
*
  1
*
 70
     0
  1
*
  1
*
  0
XRECORD
  5
229A
102
{ACAD_REACTORS
330
227B
102
}
330
227B
100
AcDbXrecord
280
     1
  1
0床壁
  1
FW*
  1
*
  1
*
 70
     0
  1
*
  1
*
  0
XRECORD
  5
229B
102
{ACAD_REACTORS
330
227B
102
}
330
227B
100
AcDbXrecord
280
     1
  1
0照明配置図
  1
*め*
  1
*
  1
*
 70
     0
  1
*
  1
*
  0
XRECORD
  5
229C
102
{ACAD_REACTORS
330
227B
102
}
330
227B
100
AcDbXrecord
280
     1
  1
0詳細図
  1
*-d
  1
*
  1
*
 70
     0
  1
*
  1
*
  0
XRECORD
  5
229D
102
{ACAD_REACTORS
330
227B
102
}
330
227B
100
AcDbXrecord
280
     1
  1
0植栽基盤
  1
*ど*
  1
*
  1
*
 70
     0
  1
*
  1
*
  0
XRECORD
  5
229E
102
{ACAD_REACTORS
330
227B
102
}
330
227B
100
AcDbXrecord
280
     1
  1
0全体工区区分図
  1
*ぜ*
  1
*
  1
*
 70
     0
  1
*
  1
*
  0
XRECORD
  5
229F
102
{ACAD_REACTORS
330
227B
102
}
330
227B
100
AcDbXrecord
280
     1
  1
0総合図off
  1
*-s
  1
*
  1
*
 70
     0
  1
*
  1
*
  0
XRECORD
  5
22A0
102
{ACAD_REACTORS
330
227B
102
}
330
227B
100
AcDbXrecord
280
     1
  1
0総合図枠
  1
*-2
  1
*
  1
*
 70
     0
  1
*
  1
*
  0
XRECORD
  5
22A1
102
{ACAD_REACTORS
330
227B
102
}
330
227B
100
AcDbXrecord
280
     1
  1
0低木
  1
*て*
  1
*
  1
*
 70
     0
  1
*
  1
*
  0
XRECORD
  5
22A2
102
{ACAD_REACTORS
330
227B
102
}
330
227B
100
AcDbXrecord
280
     1
  1
0排水平面
  1
*は*
  1
*
  1
*
 70
     0
  1
*
  1
*
  0
XRECORD
  5
22A3
102
{ACAD_REACTORS
330
227B
102
}
330
227B
100
AcDbXrecord
280
     1
  1
0平詳枠
  1
*-1
  1
*
  1
*
 70
     0
  1
*
  1
*
  0
XRECORD
  5
22A4
102
{ACAD_REACTORS
330
227B
102
}
330
227B
100
AcDbXrecord
280
     1
  1
0擁壁平面図
  1
*よ*
  1
*
  1
*
 70
     0
  1
*
  1
*
  0
XRECORD
  5
22A5
102
{ACAD_REACTORS
330
227B
102
}
330
227B
100
AcDbXrecord
280
     1
  1
1
  1
*
  1
*
  1
*
 70
     0
  1
*
  1
*
  0
XRECORD
  5
22A6
102
{ACAD_REACTORS
330
227B
102
}
330
227B
100
AcDbXrecord
280
     1
  1
10
  1
*
  1
10
  1
*
 70
     0
  1
*
  1
*
  0
XRECORD
  5
22A7
102
{ACAD_REACTORS
330
227B
102
}
330
227B
100
AcDbXrecord
280
     1
  1
100
  1
50*
  1
*
  1
*
 70
     0
  1
*
  1
*
  0
XRECORD
  5
22A8
102
{ACAD_REACTORS
330
227B
102
}
330
227B
100
AcDbXrecord
280
     1
  1
10植栽平面図
  1
00*,02*,0I*
  1
*
  1
*
 70
     0
  1
*
  1
*
  0
XRECORD
  5
22A9
102
{ACAD_REACTORS
330
227B
102
}
330
227B
100
AcDbXrecord
280
     1
  1
11
  1
11*
  1
*
  1
*
 70
     0
  1
*
  1
*
  0
XRECORD
  5
22AA
102
{ACAD_REACTORS
330
227B
102
}
330
227B
100
AcDbXrecord
280
     1
  1
1111
  1
*-50
  1
*
  1
*
 70
     0
  1
*
  1
*
  0
XRECORD
  5
22AB
102
{ACAD_REACTORS
330
227B
102
}
330
227B
100
AcDbXrecord
280
     1
  1
11寸法図
  1
00*,02*,0K*,03*
  1
*
  1
*
 70
     0
  1
*
  1
*
  0
XRECORD
  5
22AC
102
{ACAD_REACTORS
330
227B
102
}
330
227B
100
AcDbXrecord
280
     1
  1
12
  1
*
  1
*12
  1
*
 70
     0
  1
*
  1
*
  0
XRECORD
  5
22AD
102
{ACAD_REACTORS
330
227B
102
}
330
227B
100
AcDbXrecord
280
     1
  1
19
  1
*19*
  1
*
  1
*
 70
     0
  1
*
  1
*
  0
XRECORD
  5
22AE
102
{ACAD_REACTORS
330
227B
102
}
330
227B
100
AcDbXrecord
280
     1
  1
１Ｆ床伏OFF
  1
-*
  1
*
  1
*
 70
     0
  1
*
  1
*
  0
XRECORD
  5
22AF
102
{ACAD_REACTORS
330
227B
102
}
330
227B
100
AcDbXrecord
280
     1
  1
1階
  1
*1階*
  1
*
  1
*
 70
     0
  1
*
  1
*
  0
XRECORD
  5
22B0
102
{ACAD_REACTORS
330
227B
102
}
330
227B
100
AcDbXrecord
280
     1
  1
1床
  1
F-*
  1
*
  1
*
 70
     0
  1
*
  1
*
  0
XRECORD
  5
22B1
102
{ACAD_REACTORS
330
227B
102
}
330
227B
100
AcDbXrecord
280
     1
  1
1芯
  1
1*
  1
*
  1
*
 70
     0
  1
*
  1
*
  0
XRECORD
  5
22B2
102
{ACAD_REACTORS
330
227B
102
}
330
227B
100
AcDbXrecord
280
     1
  1
1芯線
  1
1*
  1
*
  1
*
 70
     0
  1
*
  1
*
  0
XRECORD
  5
22B3
102
{ACAD_REACTORS
330
227B
102
}
330
227B
100
AcDbXrecord
280
     1
  1
20
  1
*20
  1
*
  1
*
 70
     0
  1
*
  1
*
  0
XRECORD
  5
22B4
102
{ACAD_REACTORS
330
227B
102
}
330
227B
100
AcDbXrecord
280
     1
  1
21
  1
*
  1
21
  1
*
 70
     0
  1
*
  1
*
  0
XRECORD
  5
22B5
102
{ACAD_REACTORS
330
227B
102
}
330
227B
100
AcDbXrecord
280
     1
  1
250
  1
*250*
  1
*
  1
*
 70
     0
  1
*
  1
*
  0
XRECORD
  5
22B6
102
{ACAD_REACTORS
330
227B
102
}
330
227B
100
AcDbXrecord
280
     1
  1
2fmiage
  1
*
  1
*
  1
*
 70
     1
  1
*
  1
*
  0
XRECORD
  5
22B7
102
{ACAD_REACTORS
330
227B
102
}
330
227B
100
AcDbXrecord
280
     1
  1
2躯体
  1
2*
  1
*
  1
*
 70
     0
  1
*
  1
*
  0
XRECORD
  5
22B8
102
{ACAD_REACTORS
330
227B
102
}
330
227B
100
AcDbXrecord
280
     1
  1
2断面
  1
2*
  1
*
  1
*
 70
     0
  1
*
  1
*
  0
XRECORD
  5
22B9
102
{ACAD_REACTORS
330
227B
102
}
330
227B
100
AcDbXrecord
280
     1
  1
2壁
  1
W-*
  1
*
  1
*
 70
     0
  1
*
  1
*
  0
XRECORD
  5
22BA
102
{ACAD_REACTORS
330
227B
102
}
330
227B
100
AcDbXrecord
280
     1
  1
300
  1
*300*
  1
*
  1
*
 70
     0
  1
*
  1
*
  0
XRECORD
  5
22BB
102
{ACAD_REACTORS
330
227B
102
}
330
227B
100
AcDbXrecord
280
     1
  1
32
  1
*
  1
32
  1
*
 70
     0
  1
*
  1
*
  0
XRECORD
  5
22BC
102
{ACAD_REACTORS
330
227B
102
}
330
227B
100
AcDbXrecord
280
     1
  1
333
  1
*
  1
*
  1
*
 70
    12
  1
*
  1
*
  0
XRECORD
  5
22BD
102
{ACAD_REACTORS
330
227B
102
}
330
227B
100
AcDbXrecord
280
     1
  1
37
  1
*37
  1
*
  1
*
 70
     0
  1
*
  1
*
  0
XRECORD
  5
22BE
102
{ACAD_REACTORS
330
227B
102
}
330
227B
100
AcDbXrecord
280
     1
  1
3D
  1
3D*
  1
*
  1
*
 70
     0
  1
*
  1
*
  0
XRECORD
  5
22BF
102
{ACAD_REACTORS
330
227B
102
}
330
227B
100
AcDbXrecord
280
     1
  1
3開口
  1
3*
  1
*
  1
*
 70
     0
  1
*
  1
*
  0
XRECORD
  5
22C0
102
{ACAD_REACTORS
330
227B
102
}
330
227B
100
AcDbXrecord
280
     1
  1
3見掛り
  1
3*
  1
*
  1
*
 70
     0
  1
*
  1
*
  0
XRECORD
  5
22C1
102
{ACAD_REACTORS
330
227B
102
}
330
227B
100
AcDbXrecord
280
     1
  1
3天井内
  1
CI-*
  1
*
  1
*
 70
     0
  1
*
  1
*
  0
XRECORD
  5
22C2
102
{ACAD_REACTORS
330
227B
102
}
330
227B
100
AcDbXrecord
280
     1
  1
41
  1
41
  1
*
  1
*
 70
     1
  1
*
  1
*
  0
XRECORD
  5
22C3
102
{ACAD_REACTORS
330
227B
102
}
330
227B
100
AcDbXrecord
280
     1
  1
4仕上げ
  1
4*
  1
*
  1
*
 70
     0
  1
*
  1
*
  0
XRECORD
  5
22C4
102
{ACAD_REACTORS
330
227B
102
}
330
227B
100
AcDbXrecord
280
     1
  1
4天井
  1
C-*
  1
*
  1
*
 70
     0
  1
*
  1
*
  0
XRECORD
  5
22C5
102
{ACAD_REACTORS
330
227B
102
}
330
227B
100
AcDbXrecord
280
     1
  1
5
  1
*5
  1
*
  1
*
 70
     1
  1
*
  1
*
  0
XRECORD
  5
22C6
102
{ACAD_REACTORS
330
227B
102
}
330
227B
100
AcDbXrecord
280
     1
  1
50
  1
*-50
  1
*
  1
*
 70
     0
  1
*
  1
*
  0
XRECORD
  5
22C7
102
{ACAD_REACTORS
330
227B
102
}
330
227B
100
AcDbXrecord
280
     1
  1
50off
  1
50*
  1
*
  1
*
 70
     0
  1
*
  1
*
  0
XRECORD
  5
22C8
102
{ACAD_REACTORS
330
227B
102
}
330
227B
100
AcDbXrecord
280
     1
  1
51-52
  1
5*
  1
*
  1
*
 70
     0
  1
*
  1
*
  0
XRECORD
  5
22C9
102
{ACAD_REACTORS
330
227B
102
}
330
227B
100
AcDbXrecord
280
     1
  1
555
  1
*
  1
*
  1
*
 70
     1
  1
*
  1
*
  0
XRECORD
  5
22CA
102
{ACAD_REACTORS
330
227B
102
}
330
227B
100
AcDbXrecord
280
     1
  1
5寸法
  1
5*
  1
*
  1
*
 70
     0
  1
*
  1
*
  0
XRECORD
  5
22CB
102
{ACAD_REACTORS
330
227B
102
}
330
227B
100
AcDbXrecord
280
     1
  1
5文字
  1
*TXT*
  1
*
  1
*
 70
     0
  1
*
  1
*
  0
XRECORD
  5
22CC
102
{ACAD_REACTORS
330
227B
102
}
330
227B
100
AcDbXrecord
280
     1
  1
6
  1
*
  1
6
  1
*
 70
     0
  1
*
  1
*
  0
XRECORD
  5
22CD
102
{ACAD_REACTORS
330
227B
102
}
330
227B
100
AcDbXrecord
280
     1
  1
66-躯体図
  1
0,Defpoints,HOJO,雲マーク,000*,010*,020*,1*,400*,470*,520*,570*,08*
  1
*
  1
*
 70
     0
  1
*
  1
*
  0
XRECORD
  5
22CE
102
{ACAD_REACTORS
330
227B
102
}
330
227B
100
AcDbXrecord
280
     1
  1
66躯体図
  1
0,Defpoints,HOJO,雲マーク,000*,010*,020*,1*,400*,470*,520*,570*,08*,6*
  1
*
  1
*
 70
     0
  1
*
  1
*
  0
XRECORD
  5
22CF
102
{ACAD_REACTORS
330
227B
102
}
330
227B
100
AcDbXrecord
280
     1
  1
6記号
  1
6*
  1
*
  1
*
 70
     0
  1
*
  1
*
  0
XRECORD
  5
22D0
102
{ACAD_REACTORS
330
227B
102
}
330
227B
100
AcDbXrecord
280
     1
  1
6文字
  1
6*
  1
*
  1
*
 70
     0
  1
*
  1
*
  0
XRECORD
  5
22D1
102
{ACAD_REACTORS
330
227B
102
}
330
227B
100
AcDbXrecord
280
     1
  1
6保留
  1
*_a
  1
*
  1
*
 70
     0
  1
*
  1
*
  0
XRECORD
  5
22D2
102
{ACAD_REACTORS
330
227B
102
}
330
227B
100
AcDbXrecord
280
     1
  1
767
  1
*
  1
*
  1
*
 70
     0
  1
*
  1
*
  0
XRECORD
  5
22D3
102
{ACAD_REACTORS
330
227B
102
}
330
227B
100
AcDbXrecord
280
     1
  1
767SE13-0...$
  1
*
  1
*
  1
*
 70
     0
  1
*
  1
*
  0
XRECORD
  5
22D4
102
{ACAD_REACTORS
330
227B
102
}
330
227B
100
AcDbXrecord
280
     1
  1
767SE13-07-99$0$
  1
*
  1
*
  1
*
 70
     0
  1
*
  1
*
  0
XRECORD
  5
22D5
102
{ACAD_REACTORS
330
227B
102
}
330
227B
100
AcDbXrecord
280
     1
  1
7記号
  1
7*
  1
*
  1
*
 70
     0
  1
*
  1
*
  0
XRECORD
  5
22D6
102
{ACAD_REACTORS
330
227B
102
}
330
227B
100
AcDbXrecord
280
     1
  1
8
  1
*
  1
8
  1
*
 70
    12
  1
*
  1
*
  0
XRECORD
  5
22D7
102
{ACAD_REACTORS
330
227B
102
}
330
227B
100
AcDbXrecord
280
     1
  1
8寸法
  1
8*
  1
*
  1
*
 70
     0
  1
*
  1
*
  0
XRECORD
  5
22D8
102
{ACAD_REACTORS
330
227B
102
}
330
227B
100
AcDbXrecord
280
     1
  1
8設備
  1
8*
  1
*
  1
*
 70
     0
  1
*
  1
*
  0
XRECORD
  5
22D9
102
{ACAD_REACTORS
330
227B
102
}
330
227B
100
AcDbXrecord
280
     1
  1
9文字
  1
9*
  1
*
  1
*
 70
     0
  1
*
  1
*
  0
XRECORD
  5
22DA
102
{ACAD_REACTORS
330
227B
102
}
330
227B
100
AcDbXrecord
280
     1
  1
9目地
  1
9*
  1
*
  1
*
 70
     0
  1
*
  1
*
  0
XRECORD
  5
22DB
102
{ACAD_REACTORS
330
227B
102
}
330
227B
100
AcDbXrecord
280
     1
  1
A
  1
A*
  1
*
  1
*
 70
     0
  1
*
  1
*
  0
XRECORD
  5
22DC
102
{ACAD_REACTORS
330
227B
102
}
330
227B
100
AcDbXrecord
280
     1
  1
A-
  1
A-*
  1
*
  1
*
 70
     0
  1
*
  1
*
  0
XRECORD
  5
22DD
102
{ACAD_REACTORS
330
227B
102
}
330
227B
100
AcDbXrecord
280
     1
  1
A(枠･表)を表示
  1
A*
  1
*
  1
*
 70
     0
  1
*
  1
*
  0
XRECORD
  5
22DE
102
{ACAD_REACTORS
330
227B
102
}
330
227B
100
AcDbXrecord
280
     1
  1
A01
  1
*A01*
  1
*
  1
*
 70
     0
  1
*
  1
*
  0
XRECORD
  5
22DF
102
{ACAD_REACTORS
330
227B
102
}
330
227B
100
AcDbXrecord
280
     1
  1
A1.DEMO-KEY NOTE
  1
*-D-*
  1
*
  1
*
 70
     0
  1
*
  1
*
  0
XRECORD
  5
22E0
102
{ACAD_REACTORS
330
227B
102
}
330
227B
100
AcDbXrecord
280
     1
  1
A2. CONS-KEY NOTE
  1
*-C-*
  1
*
  1
*
 70
     0
  1
*
  1
*
  0
XRECORD
  5
22E1
102
{ACAD_REACTORS
330
227B
102
}
330
227B
100
AcDbXrecord
280
     1
  1
A21
  1
*A21*
  1
*
  1
*
 70
     0
  1
*
  1
*
  0
XRECORD
  5
22E2
102
{ACAD_REACTORS
330
227B
102
}
330
227B
100
AcDbXrecord
280
     1
  1
A3
  1
*A3
  1
*
  1
*
 70
     0
  1
*
  1
*
  0
XRECORD
  5
22E3
102
{ACAD_REACTORS
330
227B
102
}
330
227B
100
AcDbXrecord
280
     1
  1
A3. RCP-LAYER
  1
*R-SCH*
  1
*
  1
*
 70
     0
  1
*
  1
*
  0
XRECORD
  5
22E4
102
{ACAD_REACTORS
330
227B
102
}
330
227B
100
AcDbXrecord
280
     1
  1
A3D. RCP_DEMO-KEY NOTE
  1
*-RD-*
  1
*
  1
*
 70
     0
  1
*
  1
*
  0
XRECORD
  5
22E5
102
{ACAD_REACTORS
330
227B
102
}
330
227B
100
AcDbXrecord
280
     1
  1
A4. P&T- KEY NOTE
  1
*T-SCH*
  1
*
  1
*
 70
     0
  1
*
  1
*
  0
XRECORD
  5
22E6
102
{ACAD_REACTORS
330
227B
102
}
330
227B
100
AcDbXrecord
280
     1
  1
A4D. EL_DEMO-KEY NOTE
  1
*-ED-*
  1
*
  1
*
 70
     0
  1
*
  1
*
  0
XRECORD
  5
22E7
102
{ACAD_REACTORS
330
227B
102
}
330
227B
100
AcDbXrecord
280
     1
  1
A5. FINISH-KEY NOTE
  1
*-N-*
  1
*
  1
*
 70
     0
  1
*
  1
*
  0
XRECORD
  5
22E8
102
{ACAD_REACTORS
330
227B
102
}
330
227B
100
AcDbXrecord
280
     1
  1
A6. FURN-KEY NOTE
  1
*-F-*
  1
*
  1
*
 70
     0
  1
*
  1
*
  0
XRECORD
  5
22E9
102
{ACAD_REACTORS
330
227B
102
}
330
227B
100
AcDbXrecord
280
     1
  1
aa
  1
*aa*
  1
*
  1
*
 70
     0
  1
*
  1
*
  0
XRECORD
  5
22EA
102
{ACAD_REACTORS
330
227B
102
}
330
227B
100
AcDbXrecord
280
     1
  1
aaa
  1
*
  1
*
  1
*
 70
     0
  1
*
  1
*
  0
XRECORD
  5
22EB
102
{ACAD_REACTORS
330
227B
102
}
330
227B
100
AcDbXrecord
280
     1
  1
AB棟
  1
ＡＢ棟*
  1
*
  1
*
 70
     0
  1
*
  1
*
  0
XRECORD
  5
22EC
102
{ACAD_REACTORS
330
227B
102
}
330
227B
100
AcDbXrecord
280
     1
  1
ＡＢ棟
  1
ＡＢ棟*
  1
*
  1
*
 70
     0
  1
*
  1
*
  0
XRECORD
  5
22ED
102
{ACAD_REACTORS
330
227B
102
}
330
227B
100
AcDbXrecord
280
     1
  1
ACTIVE
  1
C.*
  1
*
  1
*
 70
     0
  1
*
  1
*
  0
XRECORD
  5
22EE
102
{ACAD_REACTORS
330
227B
102
}
330
227B
100
AcDbXrecord
280
     1
  1
ACTIVE2
  1
B-*
  1
*
  1
*
 70
     0
  1
*
  1
*
  0
XRECORD
  5
22EF
102
{ACAD_REACTORS
330
227B
102
}
330
227B
100
AcDbXrecord
280
     1
  1
ALC
  1
*ALC
  1
*
  1
*
 70
     0
  1
*
  1
*
  0
XRECORD
  5
22F0
102
{ACAD_REACTORS
330
227B
102
}
330
227B
100
AcDbXrecord
280
     1
  1
ALL
  1
*
  1
*
  1
*
 70
     3
  1
*
  1
*
  0
XRECORD
  5
22F1
102
{ACAD_REACTORS
330
227B
102
}
330
227B
100
AcDbXrecord
280
     1
  1
all選択
  1
*
  1
*
  1
*
 70
     0
  1
*
  1
*
  0
XRECORD
  5
22F2
102
{ACAD_REACTORS
330
227B
102
}
330
227B
100
AcDbXrecord
280
     1
  1
AMENAGEMENT
  1
*
  1
*
  1
*
 70
    13
  1
*
  1
*
  0
XRECORD
  5
22F3
102
{ACAD_REACTORS
330
227B
102
}
330
227B
100
AcDbXrecord
280
     1
  1
AQ
  1
AQ*
  1
*
  1
*
 70
     0
  1
*
  1
*
  0
XRECORD
  5
22F4
102
{ACAD_REACTORS
330
227B
102
}
330
227B
100
AcDbXrecord
280
     1
  1
ARBOL
  1
*ARBOL*
  1
*
  1
*
 70
     0
  1
*
  1
*
  0
XRECORD
  5
22F5
102
{ACAD_REACTORS
330
227B
102
}
330
227B
100
AcDbXrecord
280
     1
  1
AREA
  1
*AREA*
  1
*
  1
*
 70
     0
  1
*
  1
*
  0
XRECORD
  5
22F6
102
{ACAD_REACTORS
330
227B
102
}
330
227B
100
AcDbXrecord
280
     1
  1
AREA-SG
  1
*6AREA-SG
  1
6
  1
*
 70
     0
  1
*
  1
*
  0
XRECORD
  5
22F7
102
{ACAD_REACTORS
330
227B
102
}
330
227B
100
AcDbXrecord
280
     1
  1
AS1
  1
*AS1
  1
*
  1
*
 70
     0
  1
*
  1
*
  0
XRECORD
  5
22F8
102
{ACAD_REACTORS
330
227B
102
}
330
227B
100
AcDbXrecord
280
     1
  1
aハッチング
  1
a*
  1
*
  1
*
 70
     0
  1
*
  1
*
  0
XRECORD
  5
22F9
102
{ACAD_REACTORS
330
227B
102
}
330
227B
100
AcDbXrecord
280
     1
  1
A空調
  1
*
  1
*
  1
*
 70
     0
  1
*
  1
KUCYOU
  0
XRECORD
  5
22FA
102
{ACAD_REACTORS
330
227B
102
}
330
227B
100
AcDbXrecord
280
     1
  1
B
  1
B*
  1
*
  1
*
 70
     0
  1
*
  1
*
  0
XRECORD
  5
22FB
102
{ACAD_REACTORS
330
227B
102
}
330
227B
100
AcDbXrecord
280
     1
  1
B(基準)を表示
  1
B*
  1
*
  1
*
 70
     0
  1
*
  1
*
  0
XRECORD
  5
22FC
102
{ACAD_REACTORS
330
227B
102
}
330
227B
100
AcDbXrecord
280
     1
  1
B2
  1
B2*
  1
*
  1
*
 70
     1
  1
*
  1
*
  0
XRECORD
  5
22FD
102
{ACAD_REACTORS
330
227B
102
}
330
227B
100
AcDbXrecord
280
     1
  1
B3
  1
B3*
  1
*
  1
*
 70
     0
  1
*
  1
*
  0
XRECORD
  5
22FE
102
{ACAD_REACTORS
330
227B
102
}
330
227B
100
AcDbXrecord
280
     1
  1
BAL
  1
*BAL
  1
*
  1
*
 70
     0
  1
*
  1
*
  0
XRECORD
  5
22FF
102
{ACAD_REACTORS
330
227B
102
}
330
227B
100
AcDbXrecord
280
     1
  1
baru
  1
*51A
  1
*
  1
*
 70
     0
  1
*
  1
*
  0
XRECORD
  5
2300
102
{ACAD_REACTORS
330
227B
102
}
330
227B
100
AcDbXrecord
280
     1
  1
baru2
  1
*AS1A
  1
*
  1
*
 70
     0
  1
*
  1
*
  0
XRECORD
  5
2301
102
{ACAD_REACTORS
330
227B
102
}
330
227B
100
AcDbXrecord
280
     1
  1
BASE
  1
*I4BASE
  1
*
  1
*
 70
     0
  1
*
  1
*
  0
XRECORD
  5
2302
102
{ACAD_REACTORS
330
227B
102
}
330
227B
100
AcDbXrecord
280
     1
  1
bb
  1
rogarpissu,block
  1
*
  1
*
 70
     0
  1
*
  1
*
  0
XRECORD
  5
2303
102
{ACAD_REACTORS
330
227B
102
}
330
227B
100
AcDbXrecord
280
     1
  1
bbbb
  1
prova
  1
*
  1
*
 70
    55
  1
*
  1
*
  0
XRECORD
  5
2304
102
{ACAD_REACTORS
330
227B
102
}
330
227B
100
AcDbXrecord
280
     1
  1
beam
  1
*beam*
  1
*
  1
*
 70
     0
  1
*
  1
*
  0
XRECORD
  5
2305
102
{ACAD_REACTORS
330
227B
102
}
330
227B
100
AcDbXrecord
280
     1
  1
blocchi
  1
mqa*
  1
*
  1
*
 70
     0
  1
*
  1
*
  0
XRECORD
  5
2306
102
{ACAD_REACTORS
330
227B
102
}
330
227B
100
AcDbXrecord
280
     1
  1
blue
  1
*
  1
blue
  1
*
 70
     0
  1
*
  1
*
  0
XRECORD
  5
2307
102
{ACAD_REACTORS
330
227B
102
}
330
227B
100
AcDbXrecord
280
     1
  1
BSM
  1
*BSM*
  1
*
  1
*
 70
     0
  1
*
  1
*
  0
XRECORD
  5
2308
102
{ACAD_REACTORS
330
227B
102
}
330
227B
100
AcDbXrecord
280
     1
  1
b階段
  1
b*
  1
*
  1
*
 70
     0
  1
*
  1
*
  0
XRECORD
  5
2309
102
{ACAD_REACTORS
330
227B
102
}
330
227B
100
AcDbXrecord
280
     1
  1
B電気
  1
*
  1
*
  1
*
 70
     0
  1
*
  1
DENKI
  0
XRECORD
  5
230A
102
{ACAD_REACTORS
330
227B
102
}
330
227B
100
AcDbXrecord
280
     1
  1
c
  1
c*
  1
*
  1
*
 70
    61
  1
*
  1
*
  0
XRECORD
  5
230B
102
{ACAD_REACTORS
330
227B
102
}
330
227B
100
AcDbXrecord
280
     1
  1
c-block
  1
c-*
  1
*
  1
*
 70
     0
  1
*
  1
*
  0
XRECORD
  5
230C
102
{ACAD_REACTORS
330
227B
102
}
330
227B
100
AcDbXrecord
280
     1
  1
c-block-2
  1
c-*
  1
*
  1
*
 70
  1024
  1
*
  1
*
  0
XRECORD
  5
230D
102
{ACAD_REACTORS
330
227B
102
}
330
227B
100
AcDbXrecord
280
     1
  1
C(寸･文･記)を表示
  1
C*
  1
*
  1
*
 70
     0
  1
*
  1
*
  0
XRECORD
  5
230E
102
{ACAD_REACTORS
330
227B
102
}
330
227B
100
AcDbXrecord
280
     1
  1
cajetin
  1
caj*
  1
*
  1
*
 70
     0
  1
*
  1
*
  0
XRECORD
  5
230F
102
{ACAD_REACTORS
330
227B
102
}
330
227B
100
AcDbXrecord
280
     1
  1
cc
  1
*
  1
*
  1
*
 70
     0
  1
*
  1
*
  0
XRECORD
  5
2310
102
{ACAD_REACTORS
330
227B
102
}
330
227B
100
AcDbXrecord
280
     1
  1
CD06
  1
CD06*
  1
*
  1
*
 70
     0
  1
*
  1
*
  0
XRECORD
  5
2311
102
{ACAD_REACTORS
330
227B
102
}
330
227B
100
AcDbXrecord
280
     1
  1
ＣＤ棟
  1
T15-*
  1
*
  1
*
 70
     0
  1
*
  1
*
  0
XRECORD
  5
2312
102
{ACAD_REACTORS
330
227B
102
}
330
227B
100
AcDbXrecord
280
     1
  1
ceiling
  1
*ceiling*
  1
*
  1
*
 70
     0
  1
*
  1
*
  0
XRECORD
  5
2313
102
{ACAD_REACTORS
330
227B
102
}
330
227B
100
AcDbXrecord
280
     1
  1
CEILINGS XREF
  1
*CE-SUSPENDED-CEILINGS
  1
*
  1
*
 70
     0
  1
*
  1
*
  0
XRECORD
  5
2314
102
{ACAD_REACTORS
330
227B
102
}
330
227B
100
AcDbXrecord
280
     1
  1
CEL
  1
*
  1
*
  1
*
 70
     0
  1
*
  1
*
  0
XRECORD
  5
2315
102
{ACAD_REACTORS
330
227B
102
}
330
227B
100
AcDbXrecord
280
     1
  1
che
  1
che*
  1
*
  1
*
 70
     0
  1
*
  1
*
  0
XRECORD
  5
2316
102
{ACAD_REACTORS
330
227B
102
}
330
227B
100
AcDbXrecord
280
     1
  1
chika
  1
2躯体構造体点線
  1
211
  1
*
 70
     0
  1
*
  1
*
  0
XRECORD
  5
2317
102
{ACAD_REACTORS
330
227B
102
}
330
227B
100
AcDbXrecord
280
     1
  1
CLG
  1
*CLG*
  1
*
  1
*
 70
     0
  1
*
  1
*
  0
XRECORD
  5
2318
102
{ACAD_REACTORS
330
227B
102
}
330
227B
100
AcDbXrecord
280
     1
  1
COL
  1
*COL*
  1
*
  1
*
 70
     0
  1
*
  1
*
  0
XRECORD
  5
2319
102
{ACAD_REACTORS
330
227B
102
}
330
227B
100
AcDbXrecord
280
     1
  1
cold beam
  1
*cold*
  1
*
  1
*
 70
     0
  1
*
  1
*
  0
XRECORD
  5
231A
102
{ACAD_REACTORS
330
227B
102
}
330
227B
100
AcDbXrecord
280
     1
  1
colu
  1
*colu*
  1
*
  1
*
 70
     0
  1
*
  1
*
  0
XRECORD
  5
231B
102
{ACAD_REACTORS
330
227B
102
}
330
227B
100
AcDbXrecord
280
     1
  1
com
  1
com*
  1
*
  1
*
 70
     0
  1
*
  1
*
  0
XRECORD
  5
231C
102
{ACAD_REACTORS
330
227B
102
}
330
227B
100
AcDbXrecord
280
     1
  1
con
  1
c-*
  1
*
  1
*
 70
     0
  1
*
  1
*
  0
XRECORD
  5
231D
102
{ACAD_REACTORS
330
227B
102
}
330
227B
100
AcDbXrecord
280
     1
  1
CRG
  1
tca-6f|*CRG*
  1
*
  1
*
 70
     0
  1
*
  1
*
  0
XRECORD
  5
231E
102
{ACAD_REACTORS
330
227B
102
}
330
227B
100
AcDbXrecord
280
     1
  1
cyan
  1
*
  1
cyan
  1
*
 70
     0
  1
*
  1
*
  0
XRECORD
  5
231F
102
{ACAD_REACTORS
330
227B
102
}
330
227B
100
AcDbXrecord
280
     1
  1
C衛生
  1
*
  1
*
  1
*
 70
     0
  1
*
  1
EISEI
  0
XRECORD
  5
2320
102
{ACAD_REACTORS
330
227B
102
}
330
227B
100
AcDbXrecord
280
     1
  1
C街区関連
  1
*
  1
*
  1
*
 70
  1024
  1
*
  1
*
  0
XRECORD
  5
2321
102
{ACAD_REACTORS
330
227B
102
}
330
227B
100
AcDbXrecord
280
     1
  1
c雑金物
  1
c*
  1
*
  1
*
 70
     0
  1
*
  1
*
  0
XRECORD
  5
2322
102
{ACAD_REACTORS
330
227B
102
}
330
227B
100
AcDbXrecord
280
     1
  1
C打計画図
  1
001*,002*,003*,004*,005*,007*,012*,015*,016*,017*,018*,019*,020*,021*,049*,050*,051*,052*,053*,054*,055*,056*,057*,058*,059*,060*,061*,062*,063*,064*,065*,066*,067*,068*,069*,070*,071*,072*,073*,074*,075*
  1
*
  1
*
 70
     0
  1
*
  1
*
  0
XRECORD
  5
2323
102
{ACAD_REACTORS
330
227B
102
}
330
227B
100
AcDbXrecord
280
     1
  1
D
  1
D*
  1
*
  1
*
 70
     0
  1
*
  1
*
  0
XRECORD
  5
2324
102
{ACAD_REACTORS
330
227B
102
}
330
227B
100
AcDbXrecord
280
     1
  1
D(表現補助)を表示
  1
D*
  1
*
  1
*
 70
     0
  1
*
  1
*
  0
XRECORD
  5
2325
102
{ACAD_REACTORS
330
227B
102
}
330
227B
100
AcDbXrecord
280
     1
  1
Ｄ・墓地　施設平面
  1
*も*
  1
*
  1
*
 70
     0
  1
*
  1
*
  0
XRECORD
  5
2326
102
{ACAD_REACTORS
330
227B
102
}
330
227B
100
AcDbXrecord
280
     1
  1
D16
  1
D16*
  1
*
  1
*
 70
     0
  1
*
  1
*
  0
XRECORD
  5
2327
102
{ACAD_REACTORS
330
227B
102
}
330
227B
100
AcDbXrecord
280
     1
  1
DASHED
  1
*
  1
*
  1
DASHED
 70
     0
  1
*
  1
*
  0
XRECORD
  5
2328
102
{ACAD_REACTORS
330
227B
102
}
330
227B
100
AcDbXrecord
280
     1
  1
DASHED2
  1
*
  1
*
  1
DASHED
 70
     0
  1
*
  1
*
  0
XRECORD
  5
2329
102
{ACAD_REACTORS
330
227B
102
}
330
227B
100
AcDbXrecord
280
     1
  1
DEMO
  1
*DEMO*
  1
*
  1
*
 70
     0
  1
*
  1
*
  0
XRECORD
  5
232A
102
{ACAD_REACTORS
330
227B
102
}
330
227B
100
AcDbXrecord
280
     1
  1
DEMOLITION
  1
*DEMO*
  1
*
  1
*
 70
     0
  1
*
  1
*
  0
XRECORD
  5
232B
102
{ACAD_REACTORS
330
227B
102
}
330
227B
100
AcDbXrecord
280
     1
  1
detail
  1
d*
  1
*
  1
*
 70
     0
  1
*
  1
*
  0
XRECORD
  5
232C
102
{ACAD_REACTORS
330
227B
102
}
330
227B
100
AcDbXrecord
280
     1
  1
details
  1
det-*
  1
*
  1
*
 70
     0
  1
*
  1
*
  0
XRECORD
  5
232D
102
{ACAD_REACTORS
330
227B
102
}
330
227B
100
AcDbXrecord
280
     1
  1
DHED
  1
*DHED*
  1
*
  1
*
 70
     0
  1
*
  1
*
  0
XRECORD
  5
232E
102
{ACAD_REACTORS
330
227B
102
}
330
227B
100
AcDbXrecord
280
     1
  1
Dim
  1
*-Dim*
  1
*
  1
*
 70
     0
  1
*
  1
*
  0
XRECORD
  5
232F
102
{ACAD_REACTORS
330
227B
102
}
330
227B
100
AcDbXrecord
280
     1
  1
disegno
  1
ben*
  1
*
  1
*
 70
     0
  1
*
  1
*
  0
XRECORD
  5
2330
102
{ACAD_REACTORS
330
227B
102
}
330
227B
100
AcDbXrecord
280
     1
  1
DOORS
  1
*
  1
*
  1
*
 70
     0
  1
*
  1
*
  0
XRECORD
  5
2331
102
{ACAD_REACTORS
330
227B
102
}
330
227B
100
AcDbXrecord
280
     1
  1
DR
  1
DR*
  1
*
  1
*
 70
     0
  1
*
  1
*
  0
XRECORD
  5
2332
102
{ACAD_REACTORS
330
227B
102
}
330
227B
100
AcDbXrecord
280
     1
  1
DT
  1
DT*
  1
*
  1
*
 70
     0
  1
*
  1
*
  0
XRECORD
  5
2333
102
{ACAD_REACTORS
330
227B
102
}
330
227B
100
AcDbXrecord
280
     1
  1
d外構
  1
d*
  1
*
  1
*
 70
     0
  1
*
  1
*
  0
XRECORD
  5
2334
102
{ACAD_REACTORS
330
227B
102
}
330
227B
100
AcDbXrecord
280
     1
  1
Ｄ街区低木
  1
*て*
  1
*
  1
*
 70
     0
  1
*
  1
*
  0
XRECORD
  5
2335
102
{ACAD_REACTORS
330
227B
102
}
330
227B
100
AcDbXrecord
280
     1
  1
D割付平面
  1
*わ*
  1
*
  1
*
 70
     0
  1
*
  1
*
  0
XRECORD
  5
2336
102
{ACAD_REACTORS
330
227B
102
}
330
227B
100
AcDbXrecord
280
     1
  1
Ｄ給水設備
  1
*ゆ*
  1
*
  1
*
 70
     0
  1
*
  1
*
  0
XRECORD
  5
2337
102
{ACAD_REACTORS
330
227B
102
}
330
227B
100
AcDbXrecord
280
     1
  1
Ｄ計画高平面
  1
*さ*
  1
*
  1
*
 70
     0
  1
*
  1
*
  0
XRECORD
  5
2338
102
{ACAD_REACTORS
330
227B
102
}
330
227B
100
AcDbXrecord
280
     1
  1
Ｄ計画平面
  1
*け*
  1
*
  1
*
 70
     0
  1
*
  1
*
  0
XRECORD
  5
2339
102
{ACAD_REACTORS
330
227B
102
}
330
227B
100
AcDbXrecord
280
     1
  1
Ｄ工事区分
  1
*ぶ*
  1
*
  1
*
 70
     0
  1
*
  1
*
  0
XRECORD
  5
233A
102
{ACAD_REACTORS
330
227B
102
}
330
227B
100
AcDbXrecord
280
     1
  1
Ｄ高木植栽
  1
*こ*
  1
*
  1
*
 70
     0
  1
*
  1
*
  0
XRECORD
  5
233B
102
{ACAD_REACTORS
330
227B
102
}
330
227B
100
AcDbXrecord
280
     1
  1
Ｄ施設平面
  1
*し*
  1
*
  1
*
 70
     0
  1
*
  1
*
  0
XRECORD
  5
233C
102
{ACAD_REACTORS
330
227B
102
}
330
227B
100
AcDbXrecord
280
     1
  1
Ｄ照明設備
  1
*め*
  1
*
  1
*
 70
     0
  1
*
  1
*
  0
XRECORD
  5
233D
102
{ACAD_REACTORS
330
227B
102
}
330
227B
100
AcDbXrecord
280
     1
  1
Ｄ低木
  1
*て*
  1
*
  1
*
 70
     0
  1
*
  1
*
  0
XRECORD
  5
233E
102
{ACAD_REACTORS
330
227B
102
}
330
227B
100
AcDbXrecord
280
     1
  1
Ｄ電気設備
  1
*で*
  1
*
  1
*
 70
     0
  1
*
  1
*
  0
XRECORD
  5
233F
102
{ACAD_REACTORS
330
227B
102
}
330
227B
100
AcDbXrecord
280
     1
  1
Ｄ土壌改良
  1
*ど*
  1
*
  1
*
 70
     0
  1
*
  1
*
  0
XRECORD
  5
2340
102
{ACAD_REACTORS
330
227B
102
}
330
227B
100
AcDbXrecord
280
     1
  1
Ｄ排水平面
  1
*は*
  1
*
  1
*
 70
     0
  1
*
  1
*
  0
XRECORD
  5
2341
102
{ACAD_REACTORS
330
227B
102
}
330
227B
100
AcDbXrecord
280
     1
  1
D舗装平面
  1
*ほ*
  1
*
  1
*
 70
     0
  1
*
  1
*
  0
XRECORD
  5
2342
102
{ACAD_REACTORS
330
227B
102
}
330
227B
100
AcDbXrecord
280
     1
  1
Ｄ墓地施設平面
  1
*も*
  1
*
  1
*
 70
     0
  1
*
  1
*
  0
XRECORD
  5
2343
102
{ACAD_REACTORS
330
227B
102
}
330
227B
100
AcDbXrecord
280
     1
  1
D墓地排水
  1
*は*
  1
*
  1
*
 70
     0
  1
*
  1
*
  0
XRECORD
  5
2344
102
{ACAD_REACTORS
330
227B
102
}
330
227B
100
AcDbXrecord
280
     1
  1
E
  1
*E-*
  1
*
  1
*
 70
     0
  1
*
  1
*
  0
XRECORD
  5
2345
102
{ACAD_REACTORS
330
227B
102
}
330
227B
100
AcDbXrecord
280
     1
  1
E(点線系)を表示
  1
E*
  1
*
  1
*
 70
     0
  1
*
  1
*
  0
XRECORD
  5
2346
102
{ACAD_REACTORS
330
227B
102
}
330
227B
100
AcDbXrecord
280
     1
  1
EEEE
  1
*
  1
*
  1
*
 70
  1804
  1
*
  1
*
  0
XRECORD
  5
2347
102
{ACAD_REACTORS
330
227B
102
}
330
227B
100
AcDbXrecord
280
     1
  1
EISEI
  1
*4EISEI
  1
4
  1
*
 70
     0
  1
*
  1
*
  0
XRECORD
  5
2348
102
{ACAD_REACTORS
330
227B
102
}
330
227B
100
AcDbXrecord
280
     1
  1
elec
  1
01_elec-tgbt
  1
*
  1
*
 70
     0
  1
*
  1
*
  0
XRECORD
  5
2349
102
{ACAD_REACTORS
330
227B
102
}
330
227B
100
AcDbXrecord
280
     1
  1
ERAS1F
  1
*2ERAS1F
  1
*
  1
*
 70
     0
  1
*
  1
*
  0
XRECORD
  5
234A
102
{ACAD_REACTORS
330
227B
102
}
330
227B
100
AcDbXrecord
280
     1
  1
existing
  1
afl-* 
  1
*
  1
*
 70
     0
  1
*
  1
*
  0
XRECORD
  5
234B
102
{ACAD_REACTORS
330
227B
102
}
330
227B
100
AcDbXrecord
280
     1
  1
Exit
  1
*exit*
  1
*
  1
*
 70
     0
  1
*
  1
*
  0
XRECORD
  5
234C
102
{ACAD_REACTORS
330
227B
102
}
330
227B
100
AcDbXrecord
280
     1
  1
F
  1
F*
  1
*
  1
*
 70
     0
  1
*
  1
*
  0
XRECORD
  5
234D
102
{ACAD_REACTORS
330
227B
102
}
330
227B
100
AcDbXrecord
280
     1
  1
F(断面)を表示
  1
F*
  1
*
  1
*
 70
     0
  1
*
  1
*
  0
XRECORD
  5
234E
102
{ACAD_REACTORS
330
227B
102
}
330
227B
100
AcDbXrecord
280
     1
  1
F1
  1
*
  1
*
  1
*
 70
     0
  1
*
  1
*
  0
XRECORD
  5
234F
102
{ACAD_REACTORS
330
227B
102
}
330
227B
100
AcDbXrecord
280
     1
  1
face4
  1
*face4*
  1
*
  1
*
 70
     0
  1
*
  1
*
  0
XRECORD
  5
2350
102
{ACAD_REACTORS
330
227B
102
}
330
227B
100
AcDbXrecord
280
     1
  1
FC_CLADDING
  1
*FC*
  1
*
  1
*
 70
     0
  1
*
  1
*
  0
XRECORD
  5
2351
102
{ACAD_REACTORS
330
227B
102
}
330
227B
100
AcDbXrecord
280
     1
  1
FENCE
  1
*FENCE*
  1
*
  1
*
 70
     0
  1
*
  1
*
  0
XRECORD
  5
2352
102
{ACAD_REACTORS
330
227B
102
}
330
227B
100
AcDbXrecord
280
     1
  1
FF
  1
*
  1
*
  1
*
 70
     4
  1
*
  1
*
  0
XRECORD
  5
2353
102
{ACAD_REACTORS
330
227B
102
}
330
227B
100
AcDbXrecord
280
     1
  1
FH
  1
*FH*
  1
*
  1
*
 70
     0
  1
*
  1
*
  0
XRECORD
  5
2354
102
{ACAD_REACTORS
330
227B
102
}
330
227B
100
AcDbXrecord
280
     1
  1
FILTER1
  1
*
  1
*
  1
*
 70
     0
  1
*
  1
*
  0
XRECORD
  5
2355
102
{ACAD_REACTORS
330
227B
102
}
330
227B
100
AcDbXrecord
280
     1
  1
fini
  1
*fini*
  1
*
  1
*
 70
     0
  1
*
  1
*
  0
XRECORD
  5
2356
102
{ACAD_REACTORS
330
227B
102
}
330
227B
100
AcDbXrecord
280
     1
  1
finish
  1
n-*
  1
*
  1
*
 70
     0
  1
*
  1
*
  0
XRECORD
  5
2357
102
{ACAD_REACTORS
330
227B
102
}
330
227B
100
AcDbXrecord
280
     1
  1
FIRE
  1
*FIRE*
  1
*
  1
*
 70
     0
  1
*
  1
*
  0
XRECORD
  5
2358
102
{ACAD_REACTORS
330
227B
102
}
330
227B
100
AcDbXrecord
280
     1
  1
fixture
  1
f-*
  1
*
  1
*
 70
     0
  1
*
  1
*
  0
XRECORD
  5
2359
102
{ACAD_REACTORS
330
227B
102
}
330
227B
100
AcDbXrecord
280
     1
  1
fl
  1
*FL*
  1
*
  1
*
 70
     0
  1
*
  1
*
  0
XRECORD
  5
235A
102
{ACAD_REACTORS
330
227B
102
}
330
227B
100
AcDbXrecord
280
     1
  1
Floor
  1
A-Flor*
  1
*
  1
*
 70
     0
  1
*
  1
*
  0
XRECORD
  5
235B
102
{ACAD_REACTORS
330
227B
102
}
330
227B
100
AcDbXrecord
280
     1
  1
FLOOR PLAN
  1
A-FLR-*
  1
*
  1
*
 70
     0
  1
*
  1
*
  0
XRECORD
  5
235C
102
{ACAD_REACTORS
330
227B
102
}
330
227B
100
AcDbXrecord
280
     1
  1
fr
  1
*
  1
*
  1
*
 70
     4
  1
*
  1
*
  0
XRECORD
  5
235D
102
{ACAD_REACTORS
330
227B
102
}
330
227B
100
AcDbXrecord
280
     1
  1
freeze
  1
*
  1
*
  1
*
 70
     4
  1
*
  1
*
  0
XRECORD
  5
235E
102
{ACAD_REACTORS
330
227B
102
}
330
227B
100
AcDbXrecord
280
     1
  1
FRZ
  1
*
  1
*
  1
*
 70
     4
  1
*
  1
*
  0
XRECORD
  5
235F
102
{ACAD_REACTORS
330
227B
102
}
330
227B
100
AcDbXrecord
280
     1
  1
Fugou
  1
*-Fugou*
  1
*
  1
*
 70
     0
  1
*
  1
*
  0
XRECORD
  5
2360
102
{ACAD_REACTORS
330
227B
102
}
330
227B
100
AcDbXrecord
280
     1
  1
FUGOU-TATEGU
  1
*FUGOU-TATEGU
  1
*
  1
*
 70
     0
  1
*
  1
*
  0
XRECORD
  5
2361
102
{ACAD_REACTORS
330
227B
102
}
330
227B
100
AcDbXrecord
280
     1
  1
FUKI
  1
*FUKI
  1
*
  1
*
 70
     0
  1
*
  1
*
  0
XRECORD
  5
2362
102
{ACAD_REACTORS
330
227B
102
}
330
227B
100
AcDbXrecord
280
     1
  1
FURN
  1
*F-*
  1
*
  1
*
 70
     0
  1
*
  1
*
  0
XRECORD
  5
2363
102
{ACAD_REACTORS
330
227B
102
}
330
227B
100
AcDbXrecord
280
     1
  1
FURNITURE
  1
*FN*
  1
*
  1
*
 70
     0
  1
*
  1
*
  0
XRECORD
  5
2364
102
{ACAD_REACTORS
330
227B
102
}
330
227B
100
AcDbXrecord
280
     1
  1
FUSE_00
  1
*
  1
*
  1
*
 70
     0
  1
*
  1
*
  0
XRECORD
  5
2365
102
{ACAD_REACTORS
330
227B
102
}
330
227B
100
AcDbXrecord
280
     1
  1
G
  1
*-G*
  1
*
  1
*
 70
     0
  1
*
  1
*
  0
XRECORD
  5
2366
102
{ACAD_REACTORS
330
227B
102
}
330
227B
100
AcDbXrecord
280
     1
  1
G(開口)を表示
  1
G*
  1
*
  1
*
 70
     0
  1
*
  1
*
  0
XRECORD
  5
2367
102
{ACAD_REACTORS
330
227B
102
}
330
227B
100
AcDbXrecord
280
     1
  1
GAIKOU
  1
*
  1
*
  1
*
 70
     0
  1
*
  1
*
  0
XRECORD
  5
2368
102
{ACAD_REACTORS
330
227B
102
}
330
227B
100
AcDbXrecord
280
     1
  1
gel
  1
*ILLUMI*
  1
*
  1
*
 70
     0
  1
*
  1
*
  0
XRECORD
  5
2369
102
{ACAD_REACTORS
330
227B
102
}
330
227B
100
AcDbXrecord
280
     1
  1
gen
  1
g*,*$*
  1
*
  1
*
 70
     0
  1
*
  1
*
  0
XRECORD
  5
236A
102
{ACAD_REACTORS
330
227B
102
}
330
227B
100
AcDbXrecord
280
     1
  1
gondora
  1
a-gondora*
  1
*
  1
*
 70
     0
  1
*
  1
*
  0
XRECORD
  5
236B
102
{ACAD_REACTORS
330
227B
102
}
330
227B
100
AcDbXrecord
280
     1
  1
green
  1
*
  1
green
  1
*
 70
     0
  1
*
  1
*
  0
XRECORD
  5
236C
102
{ACAD_REACTORS
330
227B
102
}
330
227B
100
AcDbXrecord
280
     1
  1
GRID
  1
G*
  1
*
  1
*
 70
     0
  1
*
  1
*
  0
XRECORD
  5
236D
102
{ACAD_REACTORS
330
227B
102
}
330
227B
100
AcDbXrecord
280
     1
  1
gris
  1
*
  1
*
  1
*
 70
     0
  1
*
  1
*
  0
XRECORD
  5
236E
102
{ACAD_REACTORS
330
227B
102
}
330
227B
100
AcDbXrecord
280
     1
  1
H
  1
00*,01*,02*,03*,05*,06*,1*,2*,3*,4*,5*,6*,8*,D*,
  1
*
  1
*
 70
     0
  1
*
  1
*
  0
XRECORD
  5
236F
102
{ACAD_REACTORS
330
227B
102
}
330
227B
100
AcDbXrecord
280
     1
  1
H-
  1
H-*
  1
*
  1
*
 70
     0
  1
*
  1
*
  0
XRECORD
  5
2370
102
{ACAD_REACTORS
330
227B
102
}
330
227B
100
AcDbXrecord
280
     1
  1
H-SIN
  1
*H-SIN
  1
*
  1
*
 70
     0
  1
*
  1
*
  0
XRECORD
  5
2371
102
{ACAD_REACTORS
330
227B
102
}
330
227B
100
AcDbXrecord
280
     1
  1
H(見掛)を表示
  1
H*
  1
*
  1
*
 70
     0
  1
*
  1
*
  0
XRECORD
  5
2372
102
{ACAD_REACTORS
330
227B
102
}
330
227B
100
AcDbXrecord
280
     1
  1
HA
  1
*HA*
  1
*
  1
*
 70
     0
  1
*
  1
*
  0
XRECORD
  5
2373
102
{ACAD_REACTORS
330
227B
102
}
330
227B
100
AcDbXrecord
280
     1
  1
haikin
  1
2-*
  1
*
  1
*
 70
     0
  1
*
  1
*
  0
XRECORD
  5
2374
102
{ACAD_REACTORS
330
227B
102
}
330
227B
100
AcDbXrecord
280
     1
  1
HAISEN
  1
*1,HAISEN
  1
*
  1
*
 70
     0
  1
*
  1
*
  0
XRECORD
  5
2375
102
{ACAD_REACTORS
330
227B
102
}
330
227B
100
AcDbXrecord
280
     1
  1
HARI
  1
*HARI
  1
*
  1
*
 70
     0
  1
*
  1
*
  0
XRECORD
  5
2376
102
{ACAD_REACTORS
330
227B
102
}
330
227B
100
AcDbXrecord
280
     1
  1
hasira
  1
*hasira*
  1
*
  1
*
 70
     0
  1
*
  1
*
  0
XRECORD
  5
2377
102
{ACAD_REACTORS
330
227B
102
}
330
227B
100
AcDbXrecord
280
     1
  1
HATCH
  1
*HATCH*
  1
*
  1
*
 70
     0
  1
*
  1
*
  0
XRECORD
  5
2378
102
{ACAD_REACTORS
330
227B
102
}
330
227B
100
AcDbXrecord
280
     1
  1
HCP
  1
*HCP*
  1
*
  1
*
 70
     0
  1
*
  1
*
  0
XRECORD
  5
2379
102
{ACAD_REACTORS
330
227B
102
}
330
227B
100
AcDbXrecord
280
     1
  1
HEISHO
  1
4MAJ
  1
*
  1
*
 70
     0
  1
*
  1
*
  0
XRECORD
  5
237A
102
{ACAD_REACTORS
330
227B
102
}
330
227B
100
AcDbXrecord
280
     1
  1
HEISHO2
  1
4MAJ,3CWD,3TAT
  1
*
  1
*
 70
     0
  1
*
  1
*
  0
XRECORD
  5
237B
102
{ACAD_REACTORS
330
227B
102
}
330
227B
100
AcDbXrecord
280
     1
  1
HIDDEN
  1
*
  1
*
  1
HIDDEN
 70
     0
  1
*
  1
*
  0
XRECORD
  5
237C
102
{ACAD_REACTORS
330
227B
102
}
330
227B
100
AcDbXrecord
280
     1
  1
HOJO
  1
*HOJO
  1
*
  1
*
 70
     0
  1
*
  1
*
  0
XRECORD
  5
237D
102
{ACAD_REACTORS
330
227B
102
}
330
227B
100
AcDbXrecord
280
     1
  1
hollywood
  1
*
  1
*
  1
*
 70
    12
  1
*
  1
*
  0
XRECORD
  5
237E
102
{ACAD_REACTORS
330
227B
102
}
330
227B
100
AcDbXrecord
280
     1
  1
HOTEL
  1
*HOT*
  1
*
  1
*
 70
     0
  1
*
  1
*
  0
XRECORD
  5
237F
102
{ACAD_REACTORS
330
227B
102
}
330
227B
100
AcDbXrecord
280
     1
  1
huse
  1
0,defpoints
  1
*
  1
*
 70
     0
  1
*
  1
*
  0
XRECORD
  5
2380
102
{ACAD_REACTORS
330
227B
102
}
330
227B
100
AcDbXrecord
280
     1
  1
HYOKI
  1
*HYOKI
  1
*
  1
*
 70
     0
  1
*
  1
*
  0
XRECORD
  5
2381
102
{ACAD_REACTORS
330
227B
102
}
330
227B
100
AcDbXrecord
280
     1
  1
HYOUKI
  1
*
  1
*
  1
*
 70
     0
  1
*
  1
*
  0
XRECORD
  5
2382
102
{ACAD_REACTORS
330
227B
102
}
330
227B
100
AcDbXrecord
280
     1
  1
i
  1
*
  1
*
  1
*
 70
     0
  1
*
  1
*
  0
XRECORD
  5
2383
102
{ACAD_REACTORS
330
227B
102
}
330
227B
100
AcDbXrecord
280
     1
  1
I(二次部材系))を表示
  1
I*
  1
*
  1
*
 70
     0
  1
*
  1
*
  0
XRECORD
  5
2384
102
{ACAD_REACTORS
330
227B
102
}
330
227B
100
AcDbXrecord
280
     1
  1
I2
  1
*I2CL*
  1
*
  1
*
 70
     0
  1
*
  1
*
  0
XRECORD
  5
2385
102
{ACAD_REACTORS
330
227B
102
}
330
227B
100
AcDbXrecord
280
     1
  1
i2cl
  1
*i2c?*
  1
*
  1
*
 70
     0
  1
*
  1
*
  0
XRECORD
  5
2386
102
{ACAD_REACTORS
330
227B
102
}
330
227B
100
AcDbXrecord
280
     1
  1
i5
  1
*i5*
  1
*
  1
*
 70
     0
  1
*
  1
*
  0
XRECORD
  5
2387
102
{ACAD_REACTORS
330
227B
102
}
330
227B
100
AcDbXrecord
280
     1
  1
i9
  1
*i9*
  1
*
  1
*
 70
     0
  1
*
  1
*
  0
XRECORD
  5
2388
102
{ACAD_REACTORS
330
227B
102
}
330
227B
100
AcDbXrecord
280
     1
  1
in
  1
*
  1
*
  1
*
 70
     4
  1
*
  1
*
  0
XRECORD
  5
2389
102
{ACAD_REACTORS
330
227B
102
}
330
227B
100
AcDbXrecord
280
     1
  1
INSERT図
  1
*
  1
*
  1
*
 70
    12
  1
*
  1
*
  0
XRECORD
  5
238A
102
{ACAD_REACTORS
330
227B
102
}
330
227B
100
AcDbXrecord
280
     1
  1
ISSUE
  1
*-ISSUE1-*
  1
*
  1
*
 70
     0
  1
*
  1
*
  0
XRECORD
  5
238B
102
{ACAD_REACTORS
330
227B
102
}
330
227B
100
AcDbXrecord
280
     1
  1
J
  1
*J*
  1
*
  1
*
 70
     0
  1
*
  1
*
  0
XRECORD
  5
238C
102
{ACAD_REACTORS
330
227B
102
}
330
227B
100
AcDbXrecord
280
     1
  1
K
  1
K*
  1
*
  1
*
 70
     0
  1
*
  1
*
  0
XRECORD
  5
238D
102
{ACAD_REACTORS
330
227B
102
}
330
227B
100
AcDbXrecord
280
     1
  1
KABE
  1
*KABE
  1
*
  1
*
 70
     0
  1
*
  1
*
  0
XRECORD
  5
238E
102
{ACAD_REACTORS
330
227B
102
}
330
227B
100
AcDbXrecord
280
     1
  1
KABESHIN
  1
*A12
  1
*
  1
*
 70
     0
  1
*
  1
*
  0
XRECORD
  5
238F
102
{ACAD_REACTORS
330
227B
102
}
330
227B
100
AcDbXrecord
280
     1
  1
KAGU
  1
*KAGU*
  1
*
  1
*
 70
     0
  1
*
  1
*
  0
XRECORD
  5
2390
102
{ACAD_REACTORS
330
227B
102
}
330
227B
100
AcDbXrecord
280
     1
  1
key
  1
keyplan
  1
*
  1
*
 70
     0
  1
*
  1
*
  0
XRECORD
  5
2391
102
{ACAD_REACTORS
330
227B
102
}
330
227B
100
AcDbXrecord
280
     1
  1
KI
  1
KI*
  1
*
  1
*
 70
     0
  1
*
  1
*
  0
XRECORD
  5
2392
102
{ACAD_REACTORS
330
227B
102
}
330
227B
100
AcDbXrecord
280
     1
  1
KIGO
  1
*KIGO*
  1
*
  1
*
 70
     0
  1
*
  1
*
  0
XRECORD
  5
2393
102
{ACAD_REACTORS
330
227B
102
}
330
227B
100
AcDbXrecord
280
     1
  1
KIJUN
  1
*KIJUN
  1
*
  1
*
 70
     0
  1
*
  1
*
  0
XRECORD
  5
2394
102
{ACAD_REACTORS
330
227B
102
}
330
227B
100
AcDbXrecord
280
     1
  1
kiso
  1
f1*
  1
*
  1
*
 70
     0
  1
*
  1
*
  0
XRECORD
  5
2395
102
{ACAD_REACTORS
330
227B
102
}
330
227B
100
AcDbXrecord
280
     1
  1
KSIN
  1
*2KSIN
  1
21
  1
*
 70
     0
  1
*
  1
*
  0
XRECORD
  5
2396
102
{ACAD_REACTORS
330
227B
102
}
330
227B
100
AcDbXrecord
280
     1
  1
kui
  1
*
  1
*
  1
*
 70
     4
  1
*
  1
*
  0
XRECORD
  5
2397
102
{ACAD_REACTORS
330
227B
102
}
330
227B
100
AcDbXrecord
280
     1
  1
KUTAI
  1
*
  1
*
  1
*
 70
     0
  1
*
  1
*
  0
XRECORD
  5
2398
102
{ACAD_REACTORS
330
227B
102
}
330
227B
100
AcDbXrecord
280
     1
  1
L
  1
L*
  1
*
  1
*
 70
     0
  1
*
  1
*
  0
XRECORD
  5
2399
102
{ACAD_REACTORS
330
227B
102
}
330
227B
100
AcDbXrecord
280
     1
  1
LEGEND
  1
*-C-*
  1
*
  1
*
 70
     0
  1
*
  1
*
  0
XRECORD
  5
239A
102
{ACAD_REACTORS
330
227B
102
}
330
227B
100
AcDbXrecord
280
     1
  1
LGS
  1
*LGS*
  1
*
  1
*
 70
     0
  1
*
  1
*
  0
XRECORD
  5
239B
102
{ACAD_REACTORS
330
227B
102
}
330
227B
100
AcDbXrecord
280
     1
  1
light
  1
*light*
  1
*
  1
*
 70
     0
  1
*
  1
*
  0
XRECORD
  5
239C
102
{ACAD_REACTORS
330
227B
102
}
330
227B
100
AcDbXrecord
280
     1
  1
LIST
  1
*LIST*
  1
*
  1
*
 70
     0
  1
*
  1
*
  0
XRECORD
  5
239D
102
{ACAD_REACTORS
330
227B
102
}
330
227B
100
AcDbXrecord
280
     1
  1
lixo
  1
*
  1
*
  1
*
 70
  3072
  1
*
  1
*
  0
XRECORD
  5
239E
102
{ACAD_REACTORS
330
227B
102
}
330
227B
100
AcDbXrecord
280
     1
  1
LOCK
  1
*
  1
*
  1
*
 70
   256
  1
*
  1
*
  0
XRECORD
  5
239F
102
{ACAD_REACTORS
330
227B
102
}
330
227B
100
AcDbXrecord
280
     1
  1
LTA
  1
*
  1
*
  1
*
 70
   768
  1
*
  1
*
  0
XRECORD
  5
23A0
102
{ACAD_REACTORS
330
227B
102
}
330
227B
100
AcDbXrecord
280
     1
  1
Ｌ建具
  1
L*tategu*
  1
*
  1
*
 70
     0
  1
*
  1
*
  0
XRECORD
  5
23A1
102
{ACAD_REACTORS
330
227B
102
}
330
227B
100
AcDbXrecord
280
     1
  1
M
  1
M*
  1
*
  1
*
 70
     0
  1
*
  1
*
  0
XRECORD
  5
23A2
102
{ACAD_REACTORS
330
227B
102
}
330
227B
100
AcDbXrecord
280
     1
  1
MA
  1
MA*
  1
*
  1
*
 70
     0
  1
*
  1
*
  0
XRECORD
  5
23A3
102
{ACAD_REACTORS
330
227B
102
}
330
227B
100
AcDbXrecord
280
     1
  1
MACONNERIE
  1
*
  1
*
  1
*
 70
     0
  1
*
  1
*
  0
XRECORD
  5
23A4
102
{ACAD_REACTORS
330
227B
102
}
330
227B
100
AcDbXrecord
280
     1
  1
magenta
  1
*
  1
magenta
  1
*
 70
     0
  1
*
  1
*
  0
XRECORD
  5
23A5
102
{ACAD_REACTORS
330
227B
102
}
330
227B
100
AcDbXrecord
280
     1
  1
magenta-bleu
  1
*
  1
magenta,bleu
  1
*
 70
     0
  1
*
  1
*
  0
XRECORD
  5
23A6
102
{ACAD_REACTORS
330
227B
102
}
330
227B
100
AcDbXrecord
280
     1
  1
maji
  1
*A12
  1
*
  1
*
 70
     0
  1
*
  1
*
  0
XRECORD
  5
23A7
102
{ACAD_REACTORS
330
227B
102
}
330
227B
100
AcDbXrecord
280
     1
  1
MAJIKIRI
  1
*MAJIKIRI
  1
*
  1
*
 70
     0
  1
*
  1
*
  0
XRECORD
  5
23A8
102
{ACAD_REACTORS
330
227B
102
}
330
227B
100
AcDbXrecord
280
     1
  1
marco
  1
marco*
  1
*
  1
*
 70
     0
  1
*
  1
*
  0
XRECORD
  5
23A9
102
{ACAD_REACTORS
330
227B
102
}
330
227B
100
AcDbXrecord
280
     1
  1
MB
  1
*MB
  1
*
  1
*
 70
     0
  1
*
  1
*
  0
XRECORD
  5
23AA
102
{ACAD_REACTORS
330
227B
102
}
330
227B
100
AcDbXrecord
280
     1
  1
meji
  1
*MEJI
  1
*
  1
*
 70
     0
  1
*
  1
*
  0
XRECORD
  5
23AB
102
{ACAD_REACTORS
330
227B
102
}
330
227B
100
AcDbXrecord
280
     1
  1
merceologico
  1
mq*
  1
*
  1
*
 70
     0
  1
*
  1
*
  0
XRECORD
  5
23AC
102
{ACAD_REACTORS
330
227B
102
}
330
227B
100
AcDbXrecord
280
     1
  1
MILL
  1
*MILL*
  1
*
  1
*
 70
     0
  1
*
  1
*
  0
XRECORD
  5
23AD
102
{ACAD_REACTORS
330
227B
102
}
330
227B
100
AcDbXrecord
280
     1
  1
MILLWORK
  1
*mILL*
  1
*
  1
*
 70
     0
  1
*
  1
*
  0
XRECORD
  5
23AE
102
{ACAD_REACTORS
330
227B
102
}
330
227B
100
AcDbXrecord
280
     1
  1
miwa
  1
*
  1
*
  1
*
 70
     0
  1
*
  1
*
  0
XRECORD
  5
23AF
102
{ACAD_REACTORS
330
227B
102
}
330
227B
100
AcDbXrecord
280
     1
  1
MOJI
  1
*MOJI
  1
*
  1
*
 70
     0
  1
*
  1
*
  0
XRECORD
  5
23B0
102
{ACAD_REACTORS
330
227B
102
}
330
227B
100
AcDbXrecord
280
     1
  1
MOJI100
  1
*5MOJI100
  1
3
  1
*
 70
     0
  1
*
  1
*
  0
XRECORD
  5
23B1
102
{ACAD_REACTORS
330
227B
102
}
330
227B
100
AcDbXrecord
280
     1
  1
N
  1
*N*
  1
*
  1
*
 70
     0
  1
*
  1
*
  0
XRECORD
  5
23B2
102
{ACAD_REACTORS
330
227B
102
}
330
227B
100
AcDbXrecord
280
     1
  1
N-
  1
N-*
  1
*
  1
*
 70
     0
  1
*
  1
*
  0
XRECORD
  5
23B3
102
{ACAD_REACTORS
330
227B
102
}
330
227B
100
AcDbXrecord
280
     1
  1
NAM
  1
*NAM*
  1
*
  1
*
 70
     0
  1
*
  1
*
  0
XRECORD
  5
23B4
102
{ACAD_REACTORS
330
227B
102
}
330
227B
100
AcDbXrecord
280
     1
  1
NEW
  1
*NEW*
  1
*
  1
*
 70
     0
  1
*
  1
*
  0
XRECORD
  5
23B5
102
{ACAD_REACTORS
330
227B
102
}
330
227B
100
AcDbXrecord
280
     1
  1
NHK
  1
N*
  1
*
  1
*
 70
     0
  1
*
  1
*
  0
XRECORD
  5
23B6
102
{ACAD_REACTORS
330
227B
102
}
330
227B
100
AcDbXrecord
280
     1
  1
no xref
  1
~*|*
  1
*
  1
*
 70
     0
  1
*
  1
*
  0
XRECORD
  5
23B7
102
{ACAD_REACTORS
330
227B
102
}
330
227B
100
AcDbXrecord
280
     1
  1
note
  1
tca-6f|*note*
  1
*
  1
*
 70
     0
  1
*
  1
*
  0
XRECORD
  5
23B8
102
{ACAD_REACTORS
330
227B
102
}
330
227B
100
AcDbXrecord
280
     1
  1
NUM
  1
*NUM*
  1
*
  1
*
 70
     0
  1
*
  1
*
  0
XRECORD
  5
23B9
102
{ACAD_REACTORS
330
227B
102
}
330
227B
100
AcDbXrecord
280
     1
  1
NUMB
  1
*NUM*
  1
*
  1
*
 70
     0
  1
*
  1
*
  0
XRECORD
  5
23BA
102
{ACAD_REACTORS
330
227B
102
}
330
227B
100
AcDbXrecord
280
     1
  1
O
  1
*O*
  1
*
  1
*
 70
     0
  1
*
  1
*
  0
XRECORD
  5
23BB
102
{ACAD_REACTORS
330
227B
102
}
330
227B
100
AcDbXrecord
280
     1
  1
OF
  1
*
  1
*
  1
*
 70
     3
  1
*
  1
*
  0
XRECORD
  5
23BC
102
{ACAD_REACTORS
330
227B
102
}
330
227B
100
AcDbXrecord
280
     1
  1
OFF
  1
*
  1
*
  1
*
 70
     3
  1
*
  1
*
  0
XRECORD
  5
23BD
102
{ACAD_REACTORS
330
227B
102
}
330
227B
100
AcDbXrecord
280
     1
  1
on
  1
*
  1
*
  1
*
 70
    13
  1
*
  1
*
  0
XRECORD
  5
23BE
102
{ACAD_REACTORS
330
227B
102
}
330
227B
100
AcDbXrecord
280
     1
  1
option 1
  1
1*
  1
*
  1
*
 70
     0
  1
*
  1
*
  0
XRECORD
  5
23BF
102
{ACAD_REACTORS
330
227B
102
}
330
227B
100
AcDbXrecord
280
     1
  1
option 2
  1
2*
  1
*
  1
*
 70
     0
  1
*
  1
*
  0
XRECORD
  5
23C0
102
{ACAD_REACTORS
330
227B
102
}
330
227B
100
AcDbXrecord
280
     1
  1
OUTLINE
  1
T_*|OUTLINE
  1
*
  1
*
 70
     0
  1
*
  1
*
  0
XRECORD
  5
23C1
102
{ACAD_REACTORS
330
227B
102
}
330
227B
100
AcDbXrecord
280
     1
  1
P
  1
*-P*
  1
*
  1
*
 70
     0
  1
*
  1
*
  0
XRECORD
  5
23C2
102
{ACAD_REACTORS
330
227B
102
}
330
227B
100
AcDbXrecord
280
     1
  1
pa
  1
*pa*
  1
*
  1
*
 70
     0
  1
*
  1
*
  0
XRECORD
  5
23C3
102
{ACAD_REACTORS
330
227B
102
}
330
227B
100
AcDbXrecord
280
     1
  1
PALFOND
  1
*
  1
*
  1
*
 70
    13
  1
*
  1
*
  0
XRECORD
  5
23C4
102
{ACAD_REACTORS
330
227B
102
}
330
227B
100
AcDbXrecord
280
     1
  1
PAT
  1
*PAT*
  1
*
  1
*
 70
     0
  1
*
  1
*
  0
XRECORD
  5
23C5
102
{ACAD_REACTORS
330
227B
102
}
330
227B
100
AcDbXrecord
280
     1
  1
PC
  1
PC*
  1
*
  1
*
 70
     0
  1
*
  1
*
  0
XRECORD
  5
23C6
102
{ACAD_REACTORS
330
227B
102
}
330
227B
100
AcDbXrecord
280
     1
  1
PISO
  1
*PISO
  1
*
  1
*
 70
     0
  1
*
  1
*
  0
XRECORD
  5
23C7
102
{ACAD_REACTORS
330
227B
102
}
330
227B
100
AcDbXrecord
280
     1
  1
PLAN
  1
A*,B*,SITE*
  1
*
  1
*
 70
     0
  1
*
  1
*
  0
XRECORD
  5
23C8
102
{ACAD_REACTORS
330
227B
102
}
330
227B
100
AcDbXrecord
280
     1
  1
PLMB
  1
*PLMB*
  1
*
  1
*
 70
     0
  1
*
  1
*
  0
XRECORD
  5
23C9
102
{ACAD_REACTORS
330
227B
102
}
330
227B
100
AcDbXrecord
280
     1
  1
plot
  1
*
  1
*
  1
*
 70
     1
  1
*
  1
*
  0
XRECORD
  5
23CA
102
{ACAD_REACTORS
330
227B
102
}
330
227B
100
AcDbXrecord
280
     1
  1
PLUMB
  1
*PLUMB*
  1
*
  1
*
 70
     0
  1
*
  1
*
  0
XRECORD
  5
23CB
102
{ACAD_REACTORS
330
227B
102
}
330
227B
100
AcDbXrecord
280
     1
  1
PNL
  1
*PNL*
  1
*
  1
*
 70
     0
  1
*
  1
*
  0
XRECORD
  5
23CC
102
{ACAD_REACTORS
330
227B
102
}
330
227B
100
AcDbXrecord
280
     1
  1
power
  1
p-*
  1
*
  1
*
 70
     0
  1
*
  1
*
  0
XRECORD
  5
23CD
102
{ACAD_REACTORS
330
227B
102
}
330
227B
100
AcDbXrecord
280
     1
  1
PRT
  1
*PRT*
  1
*
  1
*
 70
     0
  1
*
  1
*
  0
XRECORD
  5
23CE
102
{ACAD_REACTORS
330
227B
102
}
330
227B
100
AcDbXrecord
280
     1
  1
q
  1
*
  1
*
  1
*
 70
     4
  1
*
  1
*
  0
XRECORD
  5
23CF
102
{ACAD_REACTORS
330
227B
102
}
330
227B
100
AcDbXrecord
280
     1
  1
R
  1
R*
  1
*
  1
*
 70
     0
  1
*
  1
*
  0
XRECORD
  5
23D0
102
{ACAD_REACTORS
330
227B
102
}
330
227B
100
AcDbXrecord
280
     1
  1
rack
  1
*rack*
  1
*
  1
*
 70
     0
  1
*
  1
*
  0
XRECORD
  5
23D1
102
{ACAD_REACTORS
330
227B
102
}
330
227B
100
AcDbXrecord
280
     1
  1
RC
  1
*RC
  1
*
  1
*
 70
     0
  1
*
  1
*
  0
XRECORD
  5
23D2
102
{ACAD_REACTORS
330
227B
102
}
330
227B
100
AcDbXrecord
280
     1
  1
RCP
  1
A*,C*
  1
*
  1
*
 70
     0
  1
*
  1
*
  0
XRECORD
  5
23D3
102
{ACAD_REACTORS
330
227B
102
}
330
227B
100
AcDbXrecord
280
     1
  1
rm
  1
*r*
  1
*
  1
*
 70
     0
  1
*
  1
*
  0
XRECORD
  5
23D4
102
{ACAD_REACTORS
330
227B
102
}
330
227B
100
AcDbXrecord
280
     1
  1
RMTAGS
  1
R*
  1
*
  1
*
 70
     0
  1
*
  1
*
  0
XRECORD
  5
23D5
102
{ACAD_REACTORS
330
227B
102
}
330
227B
100
AcDbXrecord
280
     1
  1
RNUM
  1
*NUM*
  1
*
  1
*
 70
     0
  1
*
  1
*
  0
XRECORD
  5
23D6
102
{ACAD_REACTORS
330
227B
102
}
330
227B
100
AcDbXrecord
280
     1
  1
ROOM
  1
*RM*
  1
*
  1
*
 70
     0
  1
*
  1
*
  0
XRECORD
  5
23D7
102
{ACAD_REACTORS
330
227B
102
}
330
227B
100
AcDbXrecord
280
     1
  1
roomno
  1
*num*
  1
*
  1
*
 70
     0
  1
*
  1
*
  0
XRECORD
  5
23D8
102
{ACAD_REACTORS
330
227B
102
}
330
227B
100
AcDbXrecord
280
     1
  1
rouge
  1
*
  1
1
  1
*
 70
     1
  1
*
  1
*
  0
XRECORD
  5
23D9
102
{ACAD_REACTORS
330
227B
102
}
330
227B
100
AcDbXrecord
280
     1
  1
rtkl
  1
*rtkl*
  1
*
  1
*
 70
     0
  1
*
  1
*
  0
XRECORD
  5
23DA
102
{ACAD_REACTORS
330
227B
102
}
330
227B
100
AcDbXrecord
280
     1
  1
S
  1
0,05*,11*,12*,13*,14*,20*,21*,22*,55*,56*,
  1
*
  1
*
 70
     0
  1
*
  1
*
  0
XRECORD
  5
23DB
102
{ACAD_REACTORS
330
227B
102
}
330
227B
100
AcDbXrecord
280
     1
  1
saciencewold
  1
*
  1
*
  1
*
 70
     0
  1
*
  1
*
  0
XRECORD
  5
23DC
102
{ACAD_REACTORS
330
227B
102
}
330
227B
100
AcDbXrecord
280
     1
  1
SETUBI
  1
*SETUBI
  1
*
  1
*
 70
     0
  1
*
  1
*
  0
XRECORD
  5
23DD
102
{ACAD_REACTORS
330
227B
102
}
330
227B
100
AcDbXrecord
280
     1
  1
SHITU
  1
*SHITUMEI*
  1
*
  1
*
 70
     0
  1
*
  1
*
  0
XRECORD
  5
23DE
102
{ACAD_REACTORS
330
227B
102
}
330
227B
100
AcDbXrecord
280
     1
  1
SHITUMEI
  1
*SHITUMEI2
  1
*
  1
*
 70
     0
  1
*
  1
*
  0
XRECORD
  5
23DF
102
{ACAD_REACTORS
330
227B
102
}
330
227B
100
AcDbXrecord
280
     1
  1
SIAG
  1
*3SIAG
  1
*
  1
*
 70
     0
  1
*
  1
*
  0
XRECORD
  5
23E0
102
{ACAD_REACTORS
330
227B
102
}
330
227B
100
AcDbXrecord
280
     1
  1
SIAG-N
  1
*3SIAG-N
  1
7
  1
*
 70
     0
  1
*
  1
*
  0
XRECORD
  5
23E1
102
{ACAD_REACTORS
330
227B
102
}
330
227B
100
AcDbXrecord
280
     1
  1
SIAG3
  1
*3SIAG3
  1
3
  1
*
 70
     0
  1
*
  1
*
  0
XRECORD
  5
23E2
102
{ACAD_REACTORS
330
227B
102
}
330
227B
100
AcDbXrecord
280
     1
  1
sin
  1
*SIN*
  1
*
  1
*
 70
     0
  1
*
  1
*
  0
XRECORD
  5
23E3
102
{ACAD_REACTORS
330
227B
102
}
330
227B
100
AcDbXrecord
280
     1
  1
Sinm
  1
*-Sinm*
  1
*
  1
*
 70
     0
  1
*
  1
*
  0
XRECORD
  5
23E4
102
{ACAD_REACTORS
330
227B
102
}
330
227B
100
AcDbXrecord
280
     1
  1
SITA
  1
*3SITA
  1
*
  1
*
 70
     0
  1
*
  1
*
  0
XRECORD
  5
23E5
102
{ACAD_REACTORS
330
227B
102
}
330
227B
100
AcDbXrecord
280
     1
  1
siyah
  1
*
  1
*
  1
*
 70
     4
  1
*
  1
siyah
  0
XRECORD
  5
23E6
102
{ACAD_REACTORS
330
227B
102
}
330
227B
100
AcDbXrecord
280
     1
  1
SS
  1
*SS*
  1
*
  1
*
 70
     0
  1
*
  1
*
  0
XRECORD
  5
23E7
102
{ACAD_REACTORS
330
227B
102
}
330
227B
100
AcDbXrecord
280
     1
  1
ST
  1
*ST*
  1
*
  1
*
 70
     0
  1
*
  1
*
  0
XRECORD
  5
23E8
102
{ACAD_REACTORS
330
227B
102
}
330
227B
100
AcDbXrecord
280
     1
  1
STA
  1
STA*
  1
*
  1
*
 70
     0
  1
*
  1
*
  0
XRECORD
  5
23E9
102
{ACAD_REACTORS
330
227B
102
}
330
227B
100
AcDbXrecord
280
     1
  1
stairs
  1
*sta*
  1
*
  1
*
 70
     0
  1
*
  1
*
  0
XRECORD
  5
23EA
102
{ACAD_REACTORS
330
227B
102
}
330
227B
100
AcDbXrecord
280
     1
  1
SUGA5
  1
*4SUGA5
  1
5
  1
*
 70
     0
  1
*
  1
*
  0
XRECORD
  5
23EB
102
{ACAD_REACTORS
330
227B
102
}
330
227B
100
AcDbXrecord
280
     1
  1
SUNP
  1
*5SUNP100
  1
1
  1
*
 70
     0
  1
*
  1
*
  0
XRECORD
  5
23EC
102
{ACAD_REACTORS
330
227B
102
}
330
227B
100
AcDbXrecord
280
     1
  1
SUNP100
  1
*5SUNP100
  1
*
  1
*
 70
     0
  1
*
  1
*
  0
XRECORD
  5
23ED
102
{ACAD_REACTORS
330
227B
102
}
330
227B
100
AcDbXrecord
280
     1
  1
T
  1
T*
  1
*
  1
*
 70
     0
  1
*
  1
*
  0
XRECORD
  5
23EE
102
{ACAD_REACTORS
330
227B
102
}
330
227B
100
AcDbXrecord
280
     1
  1
TAKASA
  1
*
  1
2
  1
*
 70
     0
  1
*
  1
*
  0
XRECORD
  5
23EF
102
{ACAD_REACTORS
330
227B
102
}
330
227B
100
AcDbXrecord
280
     1
  1
TATE161
  1
*4TATE161
  1
161
  1
*
 70
     0
  1
*
  1
*
  0
XRECORD
  5
23F0
102
{ACAD_REACTORS
330
227B
102
}
330
227B
100
AcDbXrecord
280
     1
  1
TATEGU
  1
*TATEGU
  1
*
  1
*
 70
     0
  1
*
  1
*
  0
XRECORD
  5
23F1
102
{ACAD_REACTORS
330
227B
102
}
330
227B
100
AcDbXrecord
280
     1
  1
ten
  1
*ten*
  1
*
  1
*
 70
     0
  1
*
  1
*
  0
XRECORD
  5
23F2
102
{ACAD_REACTORS
330
227B
102
}
330
227B
100
AcDbXrecord
280
     1
  1
TENJYOU
  1
C-*
  1
*
  1
*
 70
     0
  1
*
  1
*
  0
XRECORD
  5
23F3
102
{ACAD_REACTORS
330
227B
102
}
330
227B
100
AcDbXrecord
280
     1
  1
TENJYOUNAI
  1
CI-*
  1
*
  1
*
 70
     0
  1
*
  1
*
  0
XRECORD
  5
23F4
102
{ACAD_REACTORS
330
227B
102
}
330
227B
100
AcDbXrecord
280
     1
  1
test
  1
keyplan
  1
*
  1
*
 70
     0
  1
*
  1
*
  0
XRECORD
  5
23F5
102
{ACAD_REACTORS
330
227B
102
}
330
227B
100
AcDbXrecord
280
     1
  1
text
  1
*text*
  1
*
  1
*
 70
     0
  1
*
  1
*
  0
XRECORD
  5
23F6
102
{ACAD_REACTORS
330
227B
102
}
330
227B
100
AcDbXrecord
280
     1
  1
thaw
  1
*
  1
*
  1
*
 70
    12
  1
*
  1
*
  0
XRECORD
  5
23F7
102
{ACAD_REACTORS
330
227B
102
}
330
227B
100
AcDbXrecord
280
     1
  1
TITL
  1
*8TITL
  1
4
  1
*
 70
     0
  1
*
  1
*
  0
XRECORD
  5
23F8
102
{ACAD_REACTORS
330
227B
102
}
330
227B
100
AcDbXrecord
280
     1
  1
tnjyou
  1
c-*
  1
*
  1
*
 70
     0
  1
*
  1
*
  0
XRECORD
  5
23F9
102
{ACAD_REACTORS
330
227B
102
}
330
227B
100
AcDbXrecord
280
     1
  1
tori
  1
*A11
  1
*
  1
*
 70
     0
  1
*
  1
*
  0
XRECORD
  5
23FA
102
{ACAD_REACTORS
330
227B
102
}
330
227B
100
AcDbXrecord
280
     1
  1
TORISHIN
  1
*A11
  1
*
  1
*
 70
     0
  1
*
  1
*
  0
XRECORD
  5
23FB
102
{ACAD_REACTORS
330
227B
102
}
330
227B
100
AcDbXrecord
280
     1
  1
tr
  1
*tr*
  1
*
  1
*
 70
     0
  1
*
  1
*
  0
XRECORD
  5
23FC
102
{ACAD_REACTORS
330
227B
102
}
330
227B
100
AcDbXrecord
280
     1
  1
TSIN
  1
*2TSIN
  1
*
  1
*
 70
     0
  1
*
  1
*
  0
XRECORD
  5
23FD
102
{ACAD_REACTORS
330
227B
102
}
330
227B
100
AcDbXrecord
280
     1
  1
TXT
  1
*TX*
  1
*
  1
*
 70
     0
  1
*
  1
*
  0
XRECORD
  5
23FE
102
{ACAD_REACTORS
330
227B
102
}
330
227B
100
AcDbXrecord
280
     1
  1
UNFREEZ
  1
*
  1
*
  1
*
 70
    12
  1
*
  1
*
  0
XRECORD
  5
23FF
102
{ACAD_REACTORS
330
227B
102
}
330
227B
100
AcDbXrecord
280
     1
  1
UNROCK
  1
*
  1
*
  1
*
 70
   768
  1
*
  1
*
  0
XRECORD
  5
2400
102
{ACAD_REACTORS
330
227B
102
}
330
227B
100
AcDbXrecord
280
     1
  1
wada
  1
*
  1
*
  1
*
 70
     0
  1
*
  1
*
  0
XRECORD
  5
2401
102
{ACAD_REACTORS
330
227B
102
}
330
227B
100
AcDbXrecord
280
     1
  1
waku
  1
waku
  1
*
  1
*
 70
     0
  1
*
  1
*
  0
XRECORD
  5
2402
102
{ACAD_REACTORS
330
227B
102
}
330
227B
100
AcDbXrecord
280
     1
  1
X
  1
*$*$*
  1
*
  1
*
 70
     0
  1
*
  1
*
  0
XRECORD
  5
2403
102
{ACAD_REACTORS
330
227B
102
}
330
227B
100
AcDbXrecord
280
     1
  1
X(敷地)を表示
  1
X*
  1
*
  1
*
 70
     0
  1
*
  1
*
  0
XRECORD
  5
2404
102
{ACAD_REACTORS
330
227B
102
}
330
227B
100
AcDbXrecord
280
     1
  1
xref
  1
ground*
  1
*
  1
*
 70
     0
  1
*
  1
*
  0
XRECORD
  5
2405
102
{ACAD_REACTORS
330
227B
102
}
330
227B
100
AcDbXrecord
280
     1
  1
YAJI
  1
*YAJI*
  1
*
  1
*
 70
     0
  1
*
  1
*
  0
XRECORD
  5
2406
102
{ACAD_REACTORS
330
227B
102
}
330
227B
100
AcDbXrecord
280
     1
  1
yellow
  1
*
  1
yellow
  1
*
 70
     0
  1
*
  1
*
  0
XRECORD
  5
2407
102
{ACAD_REACTORS
330
227B
102
}
330
227B
100
AcDbXrecord
280
     1
  1
YUKA
  1
F-*
  1
*
  1
*
 70
     0
  1
*
  1
*
  0
XRECORD
  5
2408
102
{ACAD_REACTORS
330
227B
102
}
330
227B
100
AcDbXrecord
280
     1
  1
yその他
  1
y*
  1
*
  1
*
 70
     0
  1
*
  1
*
  0
XRECORD
  5
2409
102
{ACAD_REACTORS
330
227B
102
}
330
227B
100
AcDbXrecord
280
     1
  1
Z
  1
Z*
  1
*
  1
*
 70
     0
  1
*
  1
*
  0
XRECORD
  5
240A
102
{ACAD_REACTORS
330
227B
102
}
330
227B
100
AcDbXrecord
280
     1
  1
ZATU
  1
*ZATU
  1
*
  1
*
 70
     0
  1
*
  1
*
  0
XRECORD
  5
240B
102
{ACAD_REACTORS
330
227B
102
}
330
227B
100
AcDbXrecord
280
     1
  1
z図枠
  1
z*
  1
*
  1
*
 70
     0
  1
*
  1
*
  0
XRECORD
  5
240C
102
{ACAD_REACTORS
330
227B
102
}
330
227B
100
AcDbXrecord
280
     1
  1
к
  1
к-*
  1
*
  1
*
 70
     0
  1
*
  1
*
  0
XRECORD
  5
240D
102
{ACAD_REACTORS
330
227B
102
}
330
227B
100
AcDbXrecord
280
     1
  1
перегородки
  1
*перегород*
  1
*
  1
*
 70
     0
  1
*
  1
*
  0
XRECORD
  5
240E
102
{ACAD_REACTORS
330
227B
102
}
330
227B
100
AcDbXrecord
280
     1
  1
イベント給水
  1
*い*
  1
*
  1
*
 70
     0
  1
*
  1
*
  0
XRECORD
  5
240F
102
{ACAD_REACTORS
330
227B
102
}
330
227B
100
AcDbXrecord
280
     1
  1
ガラス
  1
*HMOJI
  1
*
  1
*
 70
     0
  1
*
  1
*
  0
XRECORD
  5
2410
102
{ACAD_REACTORS
330
227B
102
}
330
227B
100
AcDbXrecord
280
     1
  1
キ-プラン
  1
*HMOJI,*HOJO2,*HOJO4,*SINSEI
  1
*
  1
*
 70
     0
  1
*
  1
*
  0
XRECORD
  5
2411
102
{ACAD_REACTORS
330
227B
102
}
330
227B
100
AcDbXrecord
280
     1
  1
キープラン
  1
キープラン*
  1
*
  1
*
 70
     0
  1
*
  1
*
  0
XRECORD
  5
2412
102
{ACAD_REACTORS
330
227B
102
}
330
227B
100
AcDbXrecord
280
     1
  1
さーくる
  1
*
  1
*
  1
*
 70
     0
  1
*
  1
*
  0
XRECORD
  5
2413
102
{ACAD_REACTORS
330
227B
102
}
330
227B
100
AcDbXrecord
280
     1
  1
シェルター
  1
シェルター*
  1
*
  1
*
 70
     0
  1
*
  1
*
  0
XRECORD
  5
2414
102
{ACAD_REACTORS
330
227B
102
}
330
227B
100
AcDbXrecord
280
     1
  1
すべてに反映
  1
*す*
  1
*
  1
*
 70
     0
  1
*
  1
*
  0
XRECORD
  5
2415
102
{ACAD_REACTORS
330
227B
102
}
330
227B
100
AcDbXrecord
280
     1
  1
スロープ
  1
SL*
  1
*
  1
*
 70
     0
  1
*
  1
*
  0
XRECORD
  5
2416
102
{ACAD_REACTORS
330
227B
102
}
330
227B
100
AcDbXrecord
280
     1
  1
タイル割付平面図
  1
タイル*
  1
*
  1
*
 70
     0
  1
*
  1
*
  0
XRECORD
  5
2417
102
{ACAD_REACTORS
330
227B
102
}
330
227B
100
AcDbXrecord
280
     1
  1
ﾃｷｽﾄのみ表示
  1
*NZ5-TEXT
  1
*
  1
*
 70
     0
  1
*
  1
*
  0
XRECORD
  5
2418
102
{ACAD_REACTORS
330
227B
102
}
330
227B
100
AcDbXrecord
280
     1
  1
ハッチング
  1
*ハッチング
  1
*
  1
*
 70
     0
  1
*
  1
*
  0
XRECORD
  5
2419
102
{ACAD_REACTORS
330
227B
102
}
330
227B
100
AcDbXrecord
280
     1
  1
フリーズ
  1
*
  1
*
  1
*
 70
     4
  1
*
  1
*
  0
XRECORD
  5
241A
102
{ACAD_REACTORS
330
227B
102
}
330
227B
100
AcDbXrecord
280
     1
  1
フリーズof
  1
*
  1
*
  1
*
 70
    12
  1
*
  1
*
  0
XRECORD
  5
241B
102
{ACAD_REACTORS
330
227B
102
}
330
227B
100
AcDbXrecord
280
     1
  1
ﾌﾘｰｽﾞ画層非表示
  1
*
  1
*
  1
*
 70
    12
  1
*
  1
*
  0
XRECORD
  5
241C
102
{ACAD_REACTORS
330
227B
102
}
330
227B
100
AcDbXrecord
280
     1
  1
ﾌﾘｰｽﾞ画面非表示
  1
*
  1
*
  1
*
 70
    12
  1
*
  1
*
  0
XRECORD
  5
241D
102
{ACAD_REACTORS
330
227B
102
}
330
227B
100
AcDbXrecord
280
     1
  1
ﾌﾘｰｽﾞ解除
  1
*
  1
*
  1
*
 70
    12
  1
*
  1
*
  0
XRECORD
  5
241E
102
{ACAD_REACTORS
330
227B
102
}
330
227B
100
AcDbXrecord
280
     1
  1
フリーズ解除
  1
*
  1
*
  1
*
 70
    12
  1
*
  1
*
  0
XRECORD
  5
241F
102
{ACAD_REACTORS
330
227B
102
}
330
227B
100
AcDbXrecord
280
     1
  1
ﾌﾟﾚｾﾞﾝ枠
  1
*|ﾌﾟﾚｾﾞﾝ枠
  1
*
  1
*
 70
     0
  1
*
  1
*
  0
XRECORD
  5
2420
102
{ACAD_REACTORS
330
227B
102
}
330
227B
100
AcDbXrecord
280
     1
  1
マーク
  1
*マーク
  1
*
  1
*
 70
     0
  1
*
  1
*
  0
XRECORD
  5
2421
102
{ACAD_REACTORS
330
227B
102
}
330
227B
100
AcDbXrecord
280
     1
  1
ﾒｲﾝﾌﾟﾗｻﾞ
  1
*め*
  1
*
  1
*
 70
     0
  1
*
  1
*
  0
XRECORD
  5
2422
102
{ACAD_REACTORS
330
227B
102
}
330
227B
100
AcDbXrecord
280
     1
  1
レベル
  1
*た*
  1
*
  1
*
 70
     0
  1
*
  1
*
  0
XRECORD
  5
2423
102
{ACAD_REACTORS
330
227B
102
}
330
227B
100
AcDbXrecord
280
     1
  1
ロック
  1
*
  1
*
  1
*
 70
   256
  1
*
  1
*
  0
XRECORD
  5
2424
102
{ACAD_REACTORS
330
227B
102
}
330
227B
100
AcDbXrecord
280
     1
  1
一括非表示
  1
*
  1
*
  1
*
 70
     3
  1
*
  1
*
  0
XRECORD
  5
2425
102
{ACAD_REACTORS
330
227B
102
}
330
227B
100
AcDbXrecord
280
     1
  1
一般図
  1
hatch
  1
*
  1
*
 70
     7
  1
*
  1
*
  0
XRECORD
  5
2426
102
{ACAD_REACTORS
330
227B
102
}
330
227B
100
AcDbXrecord
280
     1
  1
印刷
  1
*
  1
*
  1
*
 70
    13
  1
*
  1
*
  0
XRECORD
  5
2427
102
{ACAD_REACTORS
330
227B
102
}
330
227B
100
AcDbXrecord
280
     1
  1
荏原機器
  1
KIKI*
  1
*
  1
*
 70
     0
  1
*
  1
*
  0
XRECORD
  5
2428
102
{ACAD_REACTORS
330
227B
102
}
330
227B
100
AcDbXrecord
280
     1
  1
荏原機器基礎
  1
a3*,KIKI*,text*,stage,矢視記号
  1
*
  1
*
 70
     0
  1
*
  1
*
  0
XRECORD
  5
2429
102
{ACAD_REACTORS
330
227B
102
}
330
227B
100
AcDbXrecord
280
     1
  1
衛生設備図
  1
001*,002*,004*,005*,007*,010*,039*,040*,041*,042*,043*
  1
*
  1
*
 70
     0
  1
*
  1
*
  0
XRECORD
  5
242A
102
{ACAD_REACTORS
330
227B
102
}
330
227B
100
AcDbXrecord
280
     1
  1
黄色
  1
*
  1
YELLOW
  1
*
 70
     0
  1
*
  1
*
  0
XRECORD
  5
242B
102
{ACAD_REACTORS
330
227B
102
}
330
227B
100
AcDbXrecord
280
     1
  1
下階
  1
下階*
  1
*
  1
*
 70
     0
  1
*
  1
*
  0
XRECORD
  5
242C
102
{ACAD_REACTORS
330
227B
102
}
330
227B
100
AcDbXrecord
280
     1
  1
下地
  1
*-下
  1
*
  1
*
 70
     0
  1
*
  1
*
  0
XRECORD
  5
242D
102
{ACAD_REACTORS
330
227B
102
}
330
227B
100
AcDbXrecord
280
     1
  1
外構
  1
外構*
  1
*
  1
*
 70
     0
  1
*
  1
*
  0
XRECORD
  5
242E
102
{ACAD_REACTORS
330
227B
102
}
330
227B
100
AcDbXrecord
280
     1
  1
外部参照－建築
  1
A*
  1
9
  1
*
 70
     0
  1
*
  1
*
  0
XRECORD
  5
242F
102
{ACAD_REACTORS
330
227B
102
}
330
227B
100
AcDbXrecord
280
     1
  1
外部参照除く
  1
A*
  1
*
  1
*
 70
     0
  1
*
  1
*
  0
XRECORD
  5
2430
102
{ACAD_REACTORS
330
227B
102
}
330
227B
100
AcDbXrecord
280
     1
  1
割り付け平面図
  1
*わ*
  1
*
  1
*
 70
     0
  1
*
  1
*
  0
XRECORD
  5
2431
102
{ACAD_REACTORS
330
227B
102
}
330
227B
100
AcDbXrecord
280
     1
  1
割付平面図
  1
*わ*
  1
*
  1
*
 70
     0
  1
*
  1
*
  0
XRECORD
  5
2432
102
{ACAD_REACTORS
330
227B
102
}
330
227B
100
AcDbXrecord
280
     1
  1
潅水平面
  1
*か*
  1
*
  1
*
 70
     0
  1
*
  1
*
  0
XRECORD
  5
2433
102
{ACAD_REACTORS
330
227B
102
}
330
227B
100
AcDbXrecord
280
     1
  1
基
  1
*_基
  1
*
  1
*
 70
     0
  1
*
  1
*
  0
XRECORD
  5
2434
102
{ACAD_REACTORS
330
227B
102
}
330
227B
100
AcDbXrecord
280
     1
  1
基準
  1
基*
  1
*
  1
*
 70
     0
  1
*
  1
*
  0
XRECORD
  5
2435
102
{ACAD_REACTORS
330
227B
102
}
330
227B
100
AcDbXrecord
280
     1
  1
基準階
  1
*基準*
  1
*
  1
*
 70
     0
  1
*
  1
*
  0
XRECORD
  5
2436
102
{ACAD_REACTORS
330
227B
102
}
330
227B
100
AcDbXrecord
280
     1
  1
基礎OFF
  1
+*
  1
*
  1
*
 70
     0
  1
*
  1
*
  0
XRECORD
  5
2437
102
{ACAD_REACTORS
330
227B
102
}
330
227B
100
AcDbXrecord
280
     1
  1
基礎伏
  1
*
  1
*
  1
*
 70
     0
  1
*
  1
*
  0
XRECORD
  5
2438
102
{ACAD_REACTORS
330
227B
102
}
330
227B
100
AcDbXrecord
280
     1
  1
基礎伏図
  1
SIZE,HOJO,ZATU,HATCH,GL-HARI,GL-HASIRA,KISO,KUI,MOJI-K1,GL-FUGO,SUNPO-K1,SUNPO,SUNPO2,SUNPO1,KIJUN3,KIJUN,SIZE
  1
*
  1
*
 70
     0
  1
*
  1
*
  0
XRECORD
  5
2439
102
{ACAD_REACTORS
330
227B
102
}
330
227B
100
AcDbXrecord
280
     1
  1
基盤改良平面図
  1
*き*
  1
*
  1
*
 70
     0
  1
*
  1
*
  0
XRECORD
  5
243A
102
{ACAD_REACTORS
330
227B
102
}
330
227B
100
AcDbXrecord
280
     1
  1
既存杭
  1
既存杭*
  1
*
  1
*
 70
     0
  1
*
  1
*
  0
XRECORD
  5
243B
102
{ACAD_REACTORS
330
227B
102
}
330
227B
100
AcDbXrecord
280
     1
  1
機器
  1
KIKI*
  1
*
  1
*
 70
     0
  1
*
  1
*
  0
XRECORD
  5
243C
102
{ACAD_REACTORS
330
227B
102
}
330
227B
100
AcDbXrecord
280
     1
  1
機器基礎
  1
a3*,KIKI*,text*,stage,矢視記号
  1
*
  1
*
 70
     0
  1
*
  1
*
  0
XRECORD
  5
243D
102
{ACAD_REACTORS
330
227B
102
}
330
227B
100
AcDbXrecord
280
     1
  1
記号
  1
*記号
  1
*
  1
*
 70
     0
  1
*
  1
*
  0
XRECORD
  5
243E
102
{ACAD_REACTORS
330
227B
102
}
330
227B
100
AcDbXrecord
280
     1
  1
給水設備平面図
  1
*み*
  1
*
  1
*
 70
     0
  1
*
  1
*
  0
XRECORD
  5
243F
102
{ACAD_REACTORS
330
227B
102
}
330
227B
100
AcDbXrecord
280
     1
  1
給水平面
  1
*き*
  1
*
  1
*
 70
     0
  1
*
  1
*
  0
XRECORD
  5
2440
102
{ACAD_REACTORS
330
227B
102
}
330
227B
100
AcDbXrecord
280
     1
  1
区画
  1
区画*
  1
*
  1
*
 70
     0
  1
*
  1
*
  0
XRECORD
  5
2441
102
{ACAD_REACTORS
330
227B
102
}
330
227B
100
AcDbXrecord
280
     1
  1
躯体
  1
*A21*
  1
*
  1
*
 70
     0
  1
*
  1
*
  0
XRECORD
  5
2442
102
{ACAD_REACTORS
330
227B
102
}
330
227B
100
AcDbXrecord
280
     1
  1
躯体図
  1
D*
  1
*
  1
*
 70
     0
  1
*
  1
*
  0
XRECORD
  5
2443
102
{ACAD_REACTORS
330
227B
102
}
330
227B
100
AcDbXrecord
280
     1
  1
空調jv
  1
00i*
  1
*
  1
*
 70
     0
  1
*
  1
*
  0
XRECORD
  5
2444
102
{ACAD_REACTORS
330
227B
102
}
330
227B
100
AcDbXrecord
280
     1
  1
空調設備図
  1
001*,002*,004*,005*,007*,010*,033*,034*,035*,036*,037*,038*
  1
*
  1
*
 70
     0
  1
*
  1
*
  0
XRECORD
  5
2445
102
{ACAD_REACTORS
330
227B
102
}
330
227B
100
AcDbXrecord
280
     1
  1
郡川
  1
kijun,kabe,sunpo
  1
*
  1
*
 70
     3
  1
*
  1
*
  0
XRECORD
  5
2446
102
{ACAD_REACTORS
330
227B
102
}
330
227B
100
AcDbXrecord
280
     1
  1
型枠計画図
  1
001*,002*,003*,004*,005*,006*,007*,010*,012*,050*,051*,055*,056*,057*,058*,059*,060*,061*,062*,063*,064*,065*,066*,067*,068*,069*,070*,071*,072*,073*,074*,075*
  1
*
  1
*
 70
     0
  1
*
  1
*
  0
XRECORD
  5
2447
102
{ACAD_REACTORS
330
227B
102
}
330
227B
100
AcDbXrecord
280
     1
  1
計画高平面図
  1
*く*
  1
*
  1
*
 70
     0
  1
*
  1
*
  0
XRECORD
  5
2448
102
{ACAD_REACTORS
330
227B
102
}
330
227B
100
AcDbXrecord
280
     1
  1
計画平面
  1
*け*
  1
*
  1
*
 70
     0
  1
*
  1
*
  0
XRECORD
  5
2449
102
{ACAD_REACTORS
330
227B
102
}
330
227B
100
AcDbXrecord
280
     1
  1
計画平面図
  1
*け*
  1
*
  1
*
 70
     0
  1
*
  1
*
  0
XRECORD
  5
244A
102
{ACAD_REACTORS
330
227B
102
}
330
227B
100
AcDbXrecord
280
     1
  1
劇場ﾌﾟﾗｻﾞ
  1
*え*
  1
*
  1
*
 70
     0
  1
*
  1
*
  0
XRECORD
  5
244B
102
{ACAD_REACTORS
330
227B
102
}
330
227B
100
AcDbXrecord
280
     1
  1
劇場棟
  1
*げ*
  1
*
  1
*
 70
     0
  1
*
  1
*
  0
XRECORD
  5
244C
102
{ACAD_REACTORS
330
227B
102
}
330
227B
100
AcDbXrecord
280
     1
  1
建具
  1
*-建
  1
*
  1
*
 70
     0
  1
*
  1
*
  0
XRECORD
  5
244D
102
{ACAD_REACTORS
330
227B
102
}
330
227B
100
AcDbXrecord
280
     1
  1
建築接地図
  1
A01*
  1
*
  1
*
 70
     0
  1
*
  1
*
  0
XRECORD
  5
244E
102
{ACAD_REACTORS
330
227B
102
}
330
227B
100
AcDbXrecord
280
     1
  1
見上げ
  1
*U
  1
*
  1
*
 70
     0
  1
*
  1
*
  0
XRECORD
  5
244F
102
{ACAD_REACTORS
330
227B
102
}
330
227B
100
AcDbXrecord
280
     1
  1
現在非表示画層
  1
*
  1
*
  1
*
 70
     3
  1
*
  1
*
  0
XRECORD
  5
2450
102
{ACAD_REACTORS
330
227B
102
}
330
227B
100
AcDbXrecord
280
     1
  1
光天井
  1
*-光
  1
*
  1
*
 70
     0
  1
*
  1
*
  0
XRECORD
  5
2451
102
{ACAD_REACTORS
330
227B
102
}
330
227B
100
AcDbXrecord
280
     1
  1
公園
  1
K*
  1
*
  1
*
 70
     0
  1
*
  1
*
  0
XRECORD
  5
2452
102
{ACAD_REACTORS
330
227B
102
}
330
227B
100
AcDbXrecord
280
     1
  1
工事区分図
  1
*じ*
  1
*
  1
*
 70
     0
  1
*
  1
*
  0
XRECORD
  5
2453
102
{ACAD_REACTORS
330
227B
102
}
330
227B
100
AcDbXrecord
280
     1
  1
工事区分図AB
  1
*α*
  1
*
  1
*
 70
     0
  1
*
  1
*
  0
XRECORD
  5
2454
102
{ACAD_REACTORS
330
227B
102
}
330
227B
100
AcDbXrecord
280
     1
  1
工事区分図CD
  1
*β*
  1
*
  1
*
 70
     0
  1
*
  1
*
  0
XRECORD
  5
2455
102
{ACAD_REACTORS
330
227B
102
}
330
227B
100
AcDbXrecord
280
     1
  1
高さ
  1
204-TEXT,東西道路*
  1
*
  1
*
 70
     0
  1
*
  1
*
  0
XRECORD
  5
2456
102
{ACAD_REACTORS
330
227B
102
}
330
227B
100
AcDbXrecord
280
     1
  1
高木植栽平面
  1
*こ*
  1
*
  1
*
 70
     0
  1
*
  1
*
  0
XRECORD
  5
2457
102
{ACAD_REACTORS
330
227B
102
}
330
227B
100
AcDbXrecord
280
     1
  1
高木平面図
  1
*こ*
  1
*
  1
*
 70
     0
  1
*
  1
*
  0
XRECORD
  5
2458
102
{ACAD_REACTORS
330
227B
102
}
330
227B
100
AcDbXrecord
280
     1
  1
座席のみ
  1
*
  1
*
  1
*
 70
     0
  1
*
  1
*
  0
XRECORD
  5
2459
102
{ACAD_REACTORS
330
227B
102
}
330
227B
100
AcDbXrecord
280
     1
  1
作業
  1
100-*,地区*,
  1
*
  1
*
 70
     1
  1
*
  1
*
  0
XRECORD
  5
245A
102
{ACAD_REACTORS
330
227B
102
}
330
227B
100
AcDbXrecord
280
     1
  1
参考
  1
六*
  1
*
  1
*
 70
     0
  1
*
  1
*
  0
XRECORD
  5
245B
102
{ACAD_REACTORS
330
227B
102
}
330
227B
100
AcDbXrecord
280
     1
  1
山止根切計画図
  1
001*,002*,003*,004*,005*,007*,012*,049*,050*,051*,052*,053*,054*,055*,056*,057*,058*,059*,060*,061*,062*,064*,065*,066*,067*,068*,069*,070*,071*,072*,073*,074*,075*
  1
*
  1
*
 70
     0
  1
*
  1
*
  0
XRECORD
  5
245C
102
{ACAD_REACTORS
330
227B
102
}
330
227B
100
AcDbXrecord
280
     1
  1
仕
  1
*_仕
  1
*
  1
*
 70
     0
  1
*
  1
*
  0
XRECORD
  5
245D
102
{ACAD_REACTORS
330
227B
102
}
330
227B
100
AcDbXrecord
280
     1
  1
仕上
  1
*-2
  1
*
  1
*
 70
     0
  1
*
  1
*
  0
XRECORD
  5
245E
102
{ACAD_REACTORS
330
227B
102
}
330
227B
100
AcDbXrecord
280
     1
  1
仕上図
  1
C*
  1
*
  1
*
 70
     0
  1
*
  1
*
  0
XRECORD
  5
245F
102
{ACAD_REACTORS
330
227B
102
}
330
227B
100
AcDbXrecord
280
     1
  1
使用中
  1
使用中
  1
*
  1
*
 70
     1
  1
*
  1
*
  0
XRECORD
  5
2460
102
{ACAD_REACTORS
330
227B
102
}
330
227B
100
AcDbXrecord
280
     1
  1
施設配置図
  1
*し*
  1
*
  1
*
 70
     0
  1
*
  1
*
  0
XRECORD
  5
2461
102
{ACAD_REACTORS
330
227B
102
}
330
227B
100
AcDbXrecord
280
     1
  1
施設平面
  1
*し*
  1
*
  1
*
 70
     0
  1
*
  1
*
  0
XRECORD
  5
2462
102
{ACAD_REACTORS
330
227B
102
}
330
227B
100
AcDbXrecord
280
     1
  1
施設平面図
  1
*し*
  1
*
  1
*
 70
     0
  1
*
  1
*
  0
XRECORD
  5
2463
102
{ACAD_REACTORS
330
227B
102
}
330
227B
100
AcDbXrecord
280
     1
  1
紫
  1
*
  1
Magenta
  1
*
 70
     0
  1
*
  1
*
  0
XRECORD
  5
2464
102
{ACAD_REACTORS
330
227B
102
}
330
227B
100
AcDbXrecord
280
     1
  1
床伏図
  1
*U*,20,Z20,Z22,Z23
  1
*
  1
*
 70
     0
  1
*
  1
*
  0
XRECORD
  5
2465
102
{ACAD_REACTORS
330
227B
102
}
330
227B
100
AcDbXrecord
280
     1
  1
昇降機
  1
T*
  1
*
  1
*
 70
     0
  1
*
  1
*
  0
XRECORD
  5
2466
102
{ACAD_REACTORS
330
227B
102
}
330
227B
100
AcDbXrecord
280
     1
  1
照明
  1
*ら*,*れ*
  1
*
  1
*
 70
     0
  1
*
  1
*
  0
XRECORD
  5
2467
102
{ACAD_REACTORS
330
227B
102
}
330
227B
100
AcDbXrecord
280
     1
  1
照明Ｃ１
  1
*ら*
  1
*
  1
*
 70
     0
  1
*
  1
*
  0
XRECORD
  5
2468
102
{ACAD_REACTORS
330
227B
102
}
330
227B
100
AcDbXrecord
280
     1
  1
照明Ｃ２
  1
*れ*
  1
*
  1
*
 70
     0
  1
*
  1
*
  0
XRECORD
  5
2469
102
{ACAD_REACTORS
330
227B
102
}
330
227B
100
AcDbXrecord
280
     1
  1
照明配置図
  1
*め*
  1
*
  1
*
 70
     0
  1
*
  1
*
  0
XRECORD
  5
246A
102
{ACAD_REACTORS
330
227B
102
}
330
227B
100
AcDbXrecord
280
     1
  1
詳細
  1
詳細*
  1
*
  1
*
 70
     0
  1
*
  1
*
  0
XRECORD
  5
246B
102
{ACAD_REACTORS
330
227B
102
}
330
227B
100
AcDbXrecord
280
     1
  1
詳細図
  1
*u*,*w*,*y*,*x*,*s*,*V*,06
  1
*
  1
*
 70
     0
  1
*
  1
*
  0
XRECORD
  5
246C
102
{ACAD_REACTORS
330
227B
102
}
330
227B
100
AcDbXrecord
280
     1
  1
上階躯体図
  1
KUTAI-Z,SIZE,HOJO,ZATU,HATCH,BR-S,KABE2,KABE,MAJIKIRI,KOBARI-S,KOBARI-R,HARI-S,HARI-R,HASIRA-S,HASIRA-R,MOJI-K2,FL-FUGO,FUGO-W,SUNPO-K2,SUNPO,SUNPO2,SUNPO1,KIJUN2,KIJUN1,KIJUN,
  1
*
  1
*
 70
     0
  1
*
  1
*
  0
XRECORD
  5
246D
102
{ACAD_REACTORS
330
227B
102
}
330
227B
100
AcDbXrecord
280
     1
  1
植栽
  1
*木*
  1
*
  1
*
 70
     0
  1
*
  1
*
  0
XRECORD
  5
246E
102
{ACAD_REACTORS
330
227B
102
}
330
227B
100
AcDbXrecord
280
     1
  1
植栽基盤平面
  1
*ど*
  1
*
  1
*
 70
     0
  1
*
  1
*
  0
XRECORD
  5
246F
102
{ACAD_REACTORS
330
227B
102
}
330
227B
100
AcDbXrecord
280
     1
  1
植栽現況
  1
*植*
  1
*
  1
*
 70
     0
  1
*
  1
*
  0
XRECORD
  5
2470
102
{ACAD_REACTORS
330
227B
102
}
330
227B
100
AcDbXrecord
280
     1
  1
植栽高木AB
  1
*λ*
  1
*
  1
*
 70
     0
  1
*
  1
*
  0
XRECORD
  5
2471
102
{ACAD_REACTORS
330
227B
102
}
330
227B
100
AcDbXrecord
280
     1
  1
植栽高木CD
  1
*ｑ*
  1
*
  1
*
 70
     0
  1
*
  1
*
  0
XRECORD
  5
2472
102
{ACAD_REACTORS
330
227B
102
}
330
227B
100
AcDbXrecord
280
     1
  1
植栽低木AB
  1
*γ*
  1
*
  1
*
 70
     0
  1
*
  1
*
  0
XRECORD
  5
2473
102
{ACAD_REACTORS
330
227B
102
}
330
227B
100
AcDbXrecord
280
     1
  1
植栽低木ＣＤ
  1
*Θ*
  1
*
  1
*
 70
     0
  1
*
  1
*
  0
XRECORD
  5
2474
102
{ACAD_REACTORS
330
227B
102
}
330
227B
100
AcDbXrecord
280
     1
  1
色番号8
  1
*
  1
8
  1
*
 70
     0
  1
*
  1
*
  0
XRECORD
  5
2475
102
{ACAD_REACTORS
330
227B
102
}
330
227B
100
AcDbXrecord
280
     1
  1
申請用
  1
*あ*,*き*,*グ*,*み*,*オ*,*ピ*,*92*
  1
*
  1
*
 70
     0
  1
*
  1
*
  0
XRECORD
  5
2476
102
{ACAD_REACTORS
330
227B
102
}
330
227B
100
AcDbXrecord
280
     1
  1
芯
  1
*芯
  1
*
  1
*
 70
     0
  1
*
  1
*
  0
XRECORD
  5
2477
102
{ACAD_REACTORS
330
227B
102
}
330
227B
100
AcDbXrecord
280
     1
  1
芯関係
  1
001*,002*,032*
  1
*
  1
*
 70
     0
  1
*
  1
*
  0
XRECORD
  5
2478
102
{ACAD_REACTORS
330
227B
102
}
330
227B
100
AcDbXrecord
280
     1
  1
水
  1
*
  1
cyan
  1
*
 70
     0
  1
*
  1
*
  0
XRECORD
  5
2479
102
{ACAD_REACTORS
330
227B
102
}
330
227B
100
AcDbXrecord
280
     1
  1
水色
  1
*
  1
Cyan
  1
*
 70
     0
  1
*
  1
*
  0
XRECORD
  5
247A
102
{ACAD_REACTORS
330
227B
102
}
330
227B
100
AcDbXrecord
280
     1
  1
寸法
  1
*寸法
  1
*
  1
*
 70
     0
  1
*
  1
*
  0
XRECORD
  5
247B
102
{ACAD_REACTORS
330
227B
102
}
330
227B
100
AcDbXrecord
280
     1
  1
製作
  1
B*
  1
*
  1
*
 70
     0
  1
*
  1
*
  0
XRECORD
  5
247C
102
{ACAD_REACTORS
330
227B
102
}
330
227B
100
AcDbXrecord
280
     1
  1
製作-躯体
  1
BS*
  1
*
  1
*
 70
     0
  1
*
  1
*
  0
XRECORD
  5
247D
102
{ACAD_REACTORS
330
227B
102
}
330
227B
100
AcDbXrecord
280
     1
  1
製作-建築
  1
BD*
  1
*
  1
*
 70
     0
  1
*
  1
*
  0
XRECORD
  5
247E
102
{ACAD_REACTORS
330
227B
102
}
330
227B
100
AcDbXrecord
280
     1
  1
製作-昇降機
  1
BT*
  1
*
  1
*
 70
     0
  1
*
  1
*
  0
XRECORD
  5
247F
102
{ACAD_REACTORS
330
227B
102
}
330
227B
100
AcDbXrecord
280
     1
  1
青
  1
*
  1
blue
  1
*
 70
     0
  1
*
  1
*
  0
XRECORD
  5
2480
102
{ACAD_REACTORS
330
227B
102
}
330
227B
100
AcDbXrecord
280
     1
  1
設備
  1
E*,P*,M*
  1
*
  1
*
 70
     0
  1
*
  1
*
  0
XRECORD
  5
2481
102
{ACAD_REACTORS
330
227B
102
}
330
227B
100
AcDbXrecord
280
     1
  1
設備プロット
  1
02*
  1
*
  1
*
 70
     0
  1
*
  1
*
  0
XRECORD
  5
2482
102
{ACAD_REACTORS
330
227B
102
}
330
227B
100
AcDbXrecord
280
     1
  1
全階平面図
  1
*
  1
*
  1
*
 70
     0
  1
*
  1
*
  0
XRECORD
  5
2483
102
{ACAD_REACTORS
330
227B
102
}
330
227B
100
AcDbXrecord
280
     1
  1
総合仮設図
  1
001*,002*,003*,004*,005*,007*,012*,015*,016*,017*,018*,019*,020*,021*,049*,050*,051*,052*,053*,054*,055*,056*,057*,058*,059*,060*,061*,062*,063*,064*,065*,066*,067*,068*,069*,070*,071*,072*,073*,074*,075*
  1
*
  1
*
 70
     0
  1
*
  1
*
  0
XRECORD
  5
2484
102
{ACAD_REACTORS
330
227B
102
}
330
227B
100
AcDbXrecord
280
     1
  1
総合図
  1
*z*,*u*,*w*,*y*,*x*,*V*,06
  1
*
  1
*
 70
     0
  1
*
  1
*
  0
XRECORD
  5
2485
102
{ACAD_REACTORS
330
227B
102
}
330
227B
100
AcDbXrecord
280
     1
  1
足場計画図
  1
001*,002*,003*,004*,005*,007*,012*,015*,049*,050*,051*,055*,056*,057*,058*,059*,060*,061*,062*,064*,065*,066*,067*,068*,069*,070*,071*,072*,073*,074*,075*
  1
*
  1
*
 70
     0
  1
*
  1
*
  0
XRECORD
  5
2486
102
{ACAD_REACTORS
330
227B
102
}
330
227B
100
AcDbXrecord
280
     1
  1
地下埋設
  1
*ち*
  1
*
  1
*
 70
     0
  1
*
  1
*
  0
XRECORD
  5
2487
102
{ACAD_REACTORS
330
227B
102
}
330
227B
100
AcDbXrecord
280
     1
  1
中野
  1
中野*
  1
*
  1
*
 70
     0
  1
*
  1
*
  0
XRECORD
  5
2488
102
{ACAD_REACTORS
330
227B
102
}
330
227B
100
AcDbXrecord
280
     1
  1
低木植栽平面
  1
*て*
  1
*
  1
*
 70
     0
  1
*
  1
*
  0
XRECORD
  5
2489
102
{ACAD_REACTORS
330
227B
102
}
330
227B
100
AcDbXrecord
280
     1
  1
低木平面図
  1
*て*
  1
*
  1
*
 70
     0
  1
*
  1
*
  0
XRECORD
  5
248A
102
{ACAD_REACTORS
330
227B
102
}
330
227B
100
AcDbXrecord
280
     1
  1
鉄骨
  1
*-1
  1
*
  1
*
 70
     0
  1
*
  1
*
  0
XRECORD
  5
248B
102
{ACAD_REACTORS
330
227B
102
}
330
227B
100
AcDbXrecord
280
     1
  1
鉄骨建方計画図
  1
001*,002*,003*,004*,005*,007*,012*,013*,049*,050*,051*,052*,053*,054*,055*,056*,057*,058*,059*,060*,061*,062*,063*,064*,065*,066*,067*,068*,069*,070*,071*,072*,073*,074*,075*
  1
*
  1
*
 70
     0
  1
*
  1
*
  0
XRECORD
  5
248C
102
{ACAD_REACTORS
330
227B
102
}
330
227B
100
AcDbXrecord
280
     1
  1
天井インサート図
  1
001*,002*,004*,010*,022*,023*,024*,025*,026*,027*,028*,029*,037*,042*
  1
*
  1
*
 70
     0
  1
*
  1
*
  0
XRECORD
  5
248D
102
{ACAD_REACTORS
330
227B
102
}
330
227B
100
AcDbXrecord
280
     1
  1
天井総合図
  1
001*,002*,004*,005*,007*,010*,022*,023*,024*,025*,026*,027*,028*,029*,030*,031*,033*,035*,036*,037*,039*,041*,042*,044*,046*,047*
  1
*
  1
*
 70
     0
  1
*
  1
*
  0
XRECORD
  5
248E
102
{ACAD_REACTORS
330
227B
102
}
330
227B
100
AcDbXrecord
280
     1
  1
天井伏図
  1
0,00*,01*,03*,05*,1*,2*,3*,4*,7*,9*
  1
*
  1
*
 70
     0
  1
*
  1
*
  0
XRECORD
  5
248F
102
{ACAD_REACTORS
330
227B
102
}
330
227B
100
AcDbXrecord
280
     1
  1
天伏
  1
*05
  1
*
  1
*
 70
     0
  1
*
  1
*
  0
XRECORD
  5
2490
102
{ACAD_REACTORS
330
227B
102
}
330
227B
100
AcDbXrecord
280
     1
  1
電気設備図
  1
001*,002*,004*,005*,007*,010*,030*,031*,044*,045*,046*,047*,048*
  1
*
  1
*
 70
     0
  1
*
  1
*
  0
XRECORD
  5
2491
102
{ACAD_REACTORS
330
227B
102
}
330
227B
100
AcDbXrecord
280
     1
  1
土壌改良
  1
*ど*
  1
*
  1
*
 70
     0
  1
*
  1
*
  0
XRECORD
  5
2492
102
{ACAD_REACTORS
330
227B
102
}
330
227B
100
AcDbXrecord
280
     1
  1
土木計画平面図
  1
*^ *,*B*,*0*,*排*,*法*,*ﾊ*,*b*
  1
*
  1
*
 70
     0
  1
*
  1
*
  0
XRECORD
  5
2493
102
{ACAD_REACTORS
330
227B
102
}
330
227B
100
AcDbXrecord
280
     1
  1
道路
  1
R*
  1
*
  1
*
 70
     0
  1
*
  1
*
  0
XRECORD
  5
2494
102
{ACAD_REACTORS
330
227B
102
}
330
227B
100
AcDbXrecord
280
     1
  1
道路関係図
  1
001*,002*,003*,004*,007*,012*,015*,016*,017*,018*,019*,020*,021*,049*,050*,051*,052*,053*,054*,055*,056*,057*,058*,059*,060*,061*,062*,063*,064*,065*,066*,067*,068*,069*,070*,071*,072*,073*,074*,075*
  1
*
  1
*
 70
     0
  1
*
  1
*
  0
XRECORD
  5
2495
102
{ACAD_REACTORS
330
227B
102
}
330
227B
100
AcDbXrecord
280
     1
  1
排水
  1
*は*
  1
*
  1
*
 70
     0
  1
*
  1
*
  0
XRECORD
  5
2496
102
{ACAD_REACTORS
330
227B
102
}
330
227B
100
AcDbXrecord
280
     1
  1
排水設備平面図
  1
*は*
  1
*
  1
*
 70
     0
  1
*
  1
*
  0
XRECORD
  5
2497
102
{ACAD_REACTORS
330
227B
102
}
330
227B
100
AcDbXrecord
280
     1
  1
排水平面
  1
*は*
  1
*
  1
*
 70
     0
  1
*
  1
*
  0
XRECORD
  5
2498
102
{ACAD_REACTORS
330
227B
102
}
330
227B
100
AcDbXrecord
280
     1
  1
配管
  1
PIPE*
  1
*
  1
*
 70
     0
  1
*
  1
*
  0
XRECORD
  5
2499
102
{ACAD_REACTORS
330
227B
102
}
330
227B
100
AcDbXrecord
280
     1
  1
非表示
  1
*
  1
*
  1
*
 70
     3
  1
*
  1
*
  0
XRECORD
  5
249A
102
{ACAD_REACTORS
330
227B
102
}
330
227B
100
AcDbXrecord
280
     1
  1
非表示ﾚｲﾔｰ
  1
*-z
  1
*
  1
*
 70
     0
  1
*
  1
*
  0
XRECORD
  5
249B
102
{ACAD_REACTORS
330
227B
102
}
330
227B
100
AcDbXrecord
280
     1
  1
表示
  1
*
  1
*
  1
*
 70
     1
  1
*
  1
*
  0
XRECORD
  5
249C
102
{ACAD_REACTORS
330
227B
102
}
330
227B
100
AcDbXrecord
280
     1
  1
表示・非表示
  1
*
  1
*
  1
*
 70
     1
  1
*
  1
*
  0
XRECORD
  5
249D
102
{ACAD_REACTORS
330
227B
102
}
330
227B
100
AcDbXrecord
280
     1
  1
表示2
  1
*
  1
*
  1
*
 70
   257
  1
*
  1
*
  0
XRECORD
  5
249E
102
{ACAD_REACTORS
330
227B
102
}
330
227B
100
AcDbXrecord
280
     1
  1
分割枠
  1
枠*
  1
*
  1
*
 70
     0
  1
*
  1
*
  0
XRECORD
  5
249F
102
{ACAD_REACTORS
330
227B
102
}
330
227B
100
AcDbXrecord
280
     1
  1
平面詳細図
  1
SUNPO-S,SIZE,HOJO,ZATU,HATCH,HWAKU,HMOJI,WARITUKE-T,WARITUKE-Y,WARITUKE-K,TATEGU1,TATEGU,BR-S,MAJIKIRI,KABE2,SIAGE,KABE1,KABE,KOBARI-S,KOBARI-R,HARI-S,HARI-R,HASIRA-S,HASIRA-R,MOJI,SHITUMEI,LABEL,FL-FUGO,FUGO-W,SUNPO,SUNPO2,SUNPO1,KIJUN2,KIJUN1,KIJUN
  1
*
  1
*
 70
     0
  1
*
  1
*
  0
XRECORD
  5
24A0
102
{ACAD_REACTORS
330
227B
102
}
330
227B
100
AcDbXrecord
280
     1
  1
平面図
  1
*HMOJI,*HOJO2,*HOJO3,*SINSEI,*FUGOT
  1
*
  1
*
 70
     0
  1
*
  1
*
  0
XRECORD
  5
24A1
102
{ACAD_REACTORS
330
227B
102
}
330
227B
100
AcDbXrecord
280
     1
  1
平面総合図
  1
001*,002*,004*,010*,013*,014*,015*,016*,017*,018*,019*,020*,021*,030*,031*,034*,040*,045*
  1
*
  1
*
 70
     0
  1
*
  1
*
  0
XRECORD
  5
24A2
102
{ACAD_REACTORS
330
227B
102
}
330
227B
100
AcDbXrecord
280
     1
  1
変更分
  1
六*
  1
*
  1
*
 70
     0
  1
*
  1
*
  0
XRECORD
  5
24A3
102
{ACAD_REACTORS
330
227B
102
}
330
227B
100
AcDbXrecord
280
     1
  1
舗装平面
  1
*ほ*
  1
*
  1
*
 70
     0
  1
*
  1
*
  0
XRECORD
  5
24A4
102
{ACAD_REACTORS
330
227B
102
}
330
227B
100
AcDbXrecord
280
     1
  1
舗装平面C1
  1
*α*
  1
*
  1
*
 70
     0
  1
*
  1
*
  0
XRECORD
  5
24A5
102
{ACAD_REACTORS
330
227B
102
}
330
227B
100
AcDbXrecord
280
     1
  1
舗装平面C2
  1
*β*
  1
*
  1
*
 70
     0
  1
*
  1
*
  0
XRECORD
  5
24A6
102
{ACAD_REACTORS
330
227B
102
}
330
227B
100
AcDbXrecord
280
     1
  1
舗装平面図
  1
*ほ*
  1
*
  1
*
 70
     0
  1
*
  1
*
  0
XRECORD
  5
24A7
102
{ACAD_REACTORS
330
227B
102
}
330
227B
100
AcDbXrecord
280
     1
  1
法規チェック－区画
  1
*92
  1
*
  1
*
 70
     0
  1
*
  1
*
  0
XRECORD
  5
24A8
102
{ACAD_REACTORS
330
227B
102
}
330
227B
100
AcDbXrecord
280
     1
  1
法規チェック－範囲
  1
*0
  1
*
  1
*
 70
     0
  1
*
  1
*
  0
XRECORD
  5
24A9
102
{ACAD_REACTORS
330
227B
102
}
330
227B
100
AcDbXrecord
280
     1
  1
鳳文字入力
  1
*
  1
*
  1
*
 70
     0
  1
*
  1
*
  0
XRECORD
  5
24AA
102
{ACAD_REACTORS
330
227B
102
}
330
227B
100
AcDbXrecord
280
     1
  1
防災
  1
B*
  1
*
  1
*
 70
   768
  1
*
  1
*
  0
XRECORD
  5
24AB
102
{ACAD_REACTORS
330
227B
102
}
330
227B
100
AcDbXrecord
280
     1
  1
名称
  1
*名称
  1
*
  1
*
 70
     0
  1
*
  1
*
  0
XRECORD
  5
24AC
102
{ACAD_REACTORS
330
227B
102
}
330
227B
100
AcDbXrecord
280
     1
  1
面積
  1
*
  1
*
  1
*
 70
     3
  1
*
  1
*
  0
XRECORD
  5
24AD
102
{ACAD_REACTORS
330
227B
102
}
330
227B
100
AcDbXrecord
280
     1
  1
擁壁平面図
  1
*よ*
  1
*
  1
*
 70
     0
  1
*
  1
*
  0
XRECORD
  5
24AE
102
{ACAD_REACTORS
330
227B
102
}
330
227B
100
AcDbXrecord
280
     1
  1
用途色塗
  1
*1-*
  1
*
  1
*
 70
     0
  1
*
  1
*
  0
XRECORD
  5
24AF
102
{ACAD_REACTORS
330
227B
102
}
330
227B
100
AcDbXrecord
280
     1
  1
立面図
  1
*HOJO2
  1
*
  1
*
 70
     0
  1
*
  1
*
  0
XRECORD
  5
24B0
102
{ACAD_REACTORS
330
227B
102
}
330
227B
100
AcDbXrecord
280
     1
  1
梁
  1
0,08*,17*,梁*
  1
*
  1
*
 70
     0
  1
*
  1
*
  0
XRECORD
  5
24B1
102
{ACAD_REACTORS
330
227B
102
}
330
227B
100
AcDbXrecord
280
     1
  1
緑
  1
*
  1
Green
  1
*
 70
     0
  1
*
  1
*
  0
ENDSEC
  0
EOF
